<?xml version="1.0" standalone="no"?>
<!DOCTYPE svg PUBLIC "-//W3C//DTD SVG 1.1//EN" "http://www.w3.org/Graphics/SVG/1.1/DTD/svg11.dtd" >
<svg xmlns="http://www.w3.org/2000/svg" xmlns:xlink="http://www.w3.org/1999/xlink" version="1.1">
<metadata></metadata>
<defs>
<font id="nexa_bookregular" horiz-adv-x="1665" >
<font-face units-per-em="2048" ascent="1536" descent="-512" />
<missing-glyph horiz-adv-x="534" />
<glyph horiz-adv-x="0" />
<glyph horiz-adv-x="682" />
<glyph unicode=" "  horiz-adv-x="534" />
<glyph unicode="&#x09;" horiz-adv-x="534" />
<glyph unicode="&#xa0;" horiz-adv-x="534" />
<glyph unicode="!" horiz-adv-x="518" d="M162 90q0 48 31.5 75t70 27t70 -27t31.5 -75q0 -47 -31.5 -74t-70 -27t-70 27t-31.5 74zM186 313v1121h146v-1121h-146z" />
<glyph unicode="&#x22;" horiz-adv-x="739" d="M154 907v531h127v-531h-127zM461 907v531h125v-531h-125z" />
<glyph unicode="#" horiz-adv-x="1388" d="M76 332v121h219l137 528h-203v117h230l82 336h139l-82 -336h365l84 336h139l-84 -336h209v-117h-238l-135 -528h219v-121h-246l-82 -332h-139l82 332h-364l-82 -332h-140l82 332h-192zM428 449h375l137 536h-373z" />
<glyph unicode="$" horiz-adv-x="1341" d="M76 283l123 63q29 -60 83.5 -105t121.5 -70t135.5 -37.5t138.5 -12.5q48 0 94.5 5t97.5 16t93 31.5t77 49t54.5 72t19.5 96.5q0 41 -13.5 75t-34.5 59t-58.5 46.5t-70 35t-85.5 27.5t-90 21.5t-96 18.5q-71 12 -116 20.5t-108 25t-103 34.5t-85 47t-70.5 63.5t-43.5 83.5 t-19 109q-2 77 27 141.5t77.5 108t115 75t134.5 47.5t141 21v199h134v-199q150 -12 270.5 -74t185.5 -184l-119 -64q-52 96 -166.5 145.5t-240.5 51.5q-70 0 -138.5 -13t-134.5 -41t-106 -82.5t-39 -127.5q0 -36 13 -65.5t32 -51.5t52.5 -41t65 -31.5t79.5 -25t85.5 -20 t94.5 -17.5t95 -17.5t91.5 -20t90 -24.5t80.5 -31.5t73.5 -40.5t60 -50.5t48 -63.5t28.5 -78t11 -94q-1 -98 -47 -175t-121.5 -123.5t-163 -72t-182.5 -30.5v-201h-132v199q-84 4 -162 23t-151 53.5t-132 91t-95 129.5z" />
<glyph unicode="%" horiz-adv-x="1542" d="M76 1120q0 58 20 113t58 100t100 72t139 27q150 0 235 -94t85 -218q0 -82 -34.5 -150t-109 -112.5t-176.5 -44.5q-151 0 -234 89.5t-83 217.5zM207 1124q0 -75 49 -128.5t139 -53.5q86 0 134.5 53t48.5 125q0 73 -49 128t-136 55q-88 0 -137 -53.5t-49 -125.5zM225 0 q143 226 461 712.5t467 721.5h147l-925 -1434h-150zM831 295q0 80 34 148.5t108 114.5t176 46q77 0 139 -26.5t100.5 -70.5t59 -98.5t20.5 -113.5q0 -126 -84 -216.5t-235 -90.5t-234.5 90.5t-83.5 216.5zM963 299q0 -76 50.5 -132t137.5 -56q88 0 137 54.5t49 129.5 q0 76 -49.5 132t-138.5 56q-87 0 -136.5 -54.5t-49.5 -129.5z" />
<glyph unicode="&#x26;" horiz-adv-x="1423" d="M125 395q0 119 77.5 209t194.5 127q-110 34 -178.5 122.5t-68.5 199.5q1 181 140 287t372 106q483 0 485 -361h-127q0 244 -363 244q-183 0 -276.5 -79t-91.5 -195q0 -71 37 -125.5t96.5 -84t122 -43.5t125.5 -14h622v-112h-131v-291q0 -54 8.5 -98t27 -82t53 -59 t81.5 -21v-127q-92 -9 -158.5 34t-93.5 142q-51 -85 -179.5 -138.5t-233.5 -53.5q-259 0 -400 105t-141 308zM266 393q0 -133 104 -210t292 -77q58 0 121 17.5t120.5 50t95 88t37.5 123.5v291h-374q-105 0 -184.5 -25t-124 -67t-66 -90t-21.5 -101z" />
<glyph unicode="'" horiz-adv-x="432" d="M154 909v531h125v-531h-125z" />
<glyph unicode="(" horiz-adv-x="679" d="M100 561q-18 293 101 559.5t356 421.5l70 -100q-183 -133 -282.5 -345.5t-102.5 -453.5q-2 -245 96 -458.5t289 -354.5l-74 -104q-206 134 -322.5 357t-130.5 478z" />
<glyph unicode=")" horiz-adv-x="675" d="M51 1440l72 100q222 -145 339.5 -388.5t117.5 -518.5q0 -264 -116 -507t-339 -402l-72 106q188 139 285.5 348.5t97.5 448.5q0 264 -93.5 461t-291.5 352z" />
<glyph unicode="*" horiz-adv-x="747" d="M121 1225l33 104l168 -59l-7 174h113l-8 -174l180 57l31 -102l-182 -45l120 -148l-90 -65l-108 157l-111 -157l-90 65l121 148z" />
<glyph unicode="+" horiz-adv-x="1024" d="M100 637v131h344v340h136v-340h344v-131h-344v-348h-136v348h-344z" />
<glyph unicode="," horiz-adv-x="477" d="M141 74q0 34 20 58t48.5 30t57.5 1t49 -29.5t20 -61.5q0 -23 -11.5 -57t-36 -94.5t-40.5 -106.5h-103l58 178q-62 18 -62 82z" />
<glyph unicode="-" horiz-adv-x="1017" d="M145 528v125h727v-125h-727z" />
<glyph unicode="." horiz-adv-x="473" d="M139 78q0 46 30.5 72t67 26t67 -26t30.5 -72t-30.5 -72t-67 -26t-67 26t-30.5 72z" />
<glyph unicode="/" horiz-adv-x="991" d="M51 -168l744 1727h143l-745 -1727h-142z" />
<glyph unicode="0" horiz-adv-x="1398" d="M133 561v311q0 186 84 322.5t210 197.5t272.5 61t272.5 -61.5t210 -198t84 -321.5v-311q0 -185 -84 -321.5t-210 -198t-272.5 -61.5t-272.5 61t-210 197.5t-84 322.5zM272 559q0 -108 36.5 -195.5t96.5 -141.5t136.5 -83t156.5 -29t156.5 29t136.5 83t96.5 141.5 t36.5 195.5v315q0 107 -36.5 194.5t-96.5 141t-136.5 82.5t-156.5 29.5t-156.5 -28.5t-136.5 -82.5t-96.5 -141t-36.5 -195.5v-315z" />
<glyph unicode="1" horiz-adv-x="831" d="M104 0v117h273v1151l-260 -66v119l393 113v-1317h270v-117h-676z" />
<glyph unicode="2" horiz-adv-x="1376" d="M133 0v336q0 93 33 165.5t86.5 116.5t129 72.5t152 39.5t162.5 11q54 0 108.5 8t112.5 28.5t102 51.5t72.5 82t28.5 115q0 82 -38.5 143t-102 94t-133.5 49t-146 17q-59 0 -113.5 -7t-111.5 -27t-98.5 -50.5t-68 -82t-27.5 -118.5h-142q2 91 36.5 162.5t88.5 116.5 t128 75t149.5 42t158.5 12t159.5 -13.5t149 -45.5t126 -79.5t86 -121t32.5 -164.5q0 -90 -32.5 -162t-86 -118.5t-126.5 -77t-150 -43.5t-160 -13q-61 0 -117 -7t-115 -26t-102 -49t-70.5 -80t-27.5 -114v-205h979v-133h-1112z" />
<glyph unicode="3" horiz-adv-x="1357" d="M115 379h137q2 -266 432 -266q191 0 303.5 79.5t112.5 202.5q0 52 -25.5 100t-74 89t-130 65.5t-184.5 24.5h-235v121h225q180 0 290.5 78.5t112.5 185.5q0 51 -24.5 99t-72 87.5t-125.5 63.5t-175 24q-54 0 -105.5 -6.5t-107.5 -24.5t-97.5 -46t-68.5 -75.5t-27 -109.5 h-139q0 86 33.5 154t86.5 109.5t126 69t145.5 38t151.5 10.5q241 0 383.5 -107.5t144.5 -285.5q0 -116 -75 -206.5t-193 -115.5q128 -27 212.5 -118t84.5 -220q0 -193 -150.5 -305t-404.5 -112q-82 0 -157 10.5t-151.5 38.5t-132.5 71.5t-91 114.5t-35 162z" />
<glyph unicode="4" horiz-adv-x="1323" d="M47 434l852 1000h160v-990h168v-120h-168v-324h-133v324h-854zM215 444h711v824z" />
<glyph unicode="5" horiz-adv-x="1349" d="M129 403h139q0 -70 27.5 -123t69 -83.5t100.5 -49t112 -24.5t113 -6q194 0 306 91t112 234t-95 226.5t-292 83.5h-559v682h1007v-131h-872v-420h424q264 0 396 -121t132 -320t-148.5 -326.5t-408.5 -127.5q-87 0 -164 11.5t-151.5 41.5t-128 75.5t-86 119t-33.5 167.5z " />
<glyph unicode="6" horiz-adv-x="1411" d="M158 436v604q0 102 47.5 183.5t127 131t177 75.5t203.5 26q113 0 209 -21t173 -63.5t123 -113.5t50 -164h-148q-5 78 -62 131.5t-144.5 77.5t-198.5 24q-72 0 -142.5 -16.5t-133 -49.5t-101.5 -90.5t-39 -130.5v-346q66 95 186 142t248 47q86 0 164.5 -14.5t153 -48.5 t129 -84.5t87.5 -128.5t33 -175q0 -94 -33 -171t-88 -128t-129.5 -85.5t-154 -50t-164.5 -15.5q-86 0 -167 15.5t-155.5 51t-129.5 87t-88 129t-33 171.5zM301 434q0 -84 38.5 -147.5t102.5 -100t137 -54t152 -17.5q78 0 150 17t136 52.5t102 99t38 148.5q0 87 -37.5 152 t-100.5 101t-135 53.5t-151 17.5q-77 0 -151.5 -20.5t-138 -58.5t-102.5 -101.5t-40 -141.5z" />
<glyph unicode="7" horiz-adv-x="1150" d="M66 1294v140h1046l14 -105l-743 -1329h-162l731 1294h-886z" />
<glyph unicode="8" horiz-adv-x="1439" d="M121 391q1 127 86.5 221.5t212.5 126.5q-124 44 -197 125.5t-73 198.5q0 86 33 155t87.5 114t129 75t154 42.5t165.5 12.5q87 0 166 -12.5t154 -42t130 -74t88.5 -114t34.5 -156.5q0 -115 -77 -199.5t-203 -124.5q128 -32 216.5 -128.5t88.5 -219.5q1 -114 -48 -198 t-135.5 -131.5t-189.5 -70t-225 -22.5t-225 22t-189 69.5t-135 132t-49 198.5zM264 389q0 -75 40 -133t106.5 -92.5t145.5 -52t165 -17.5t164.5 17t144.5 51.5t105.5 93t40.5 133.5q0 62 -31 113t-80 83.5t-111 54.5t-120.5 31t-112.5 9q-55 0 -113 -8.5t-120.5 -30.5 t-111 -54t-80 -83.5t-32.5 -114.5zM291 1065q0 -71 42 -125t109 -83t137.5 -42.5t141.5 -13.5q70 0 140.5 13.5t137.5 42.5t109 83t43 125q0 75 -36.5 130t-99.5 86t-137 45.5t-159 14.5t-158.5 -15t-136 -46t-98.5 -86t-35 -129z" />
<glyph unicode="9" horiz-adv-x="1415" d="M115 1006q0 94 33 171t88 128t129.5 85.5t154 50t164.5 15.5q86 0 167 -16t155.5 -51.5t129.5 -87t88 -129t33 -171.5v-604q0 -82 -32 -151.5t-86 -118t-126.5 -82t-152.5 -49.5t-164 -16q-113 0 -210 21.5t-175 64t-125 114t-51 164.5h148q5 -78 63.5 -132.5 t147.5 -78.5t200 -24q72 0 144 17t136.5 49.5t105 90.5t40.5 131v346q-66 -94 -188 -141t-250 -47q-86 0 -164.5 14.5t-153 48.5t-129 84.5t-87.5 128.5t-33 175zM258 1006q0 -87 37.5 -152t100.5 -101t135 -53.5t151 -17.5q77 0 151.5 20.5t138 58.5t102.5 101.5t40 141.5 q0 84 -38.5 147.5t-102.5 100t-137 54t-152 17.5q-78 0 -150 -17t-136 -52.5t-102 -99t-38 -148.5z" />
<glyph unicode=":" horiz-adv-x="485" d="M145 78q0 46 30.5 72t67 26t67 -26t30.5 -72q0 -45 -30.5 -70.5t-67 -25.5t-67 25.5t-30.5 70.5zM145 688q0 45 30.5 70.5t67 25.5t67 -25.5t30.5 -70.5q0 -46 -30.5 -72t-67 -26t-67 26t-30.5 72z" />
<glyph unicode=";" horiz-adv-x="485" d="M145 74q0 10 5 18q5 39 35 59t64 18t61.5 -28t27.5 -69q0 -23 -11.5 -57t-36 -94.5t-40.5 -106.5h-103l58 178q-60 18 -60 82zM145 688q0 45 30.5 70.5t67 25.5t67 -25.5t30.5 -70.5q0 -46 -30.5 -72t-67 -26t-67 26t-30.5 72z" />
<glyph unicode="&#x3c;" horiz-adv-x="749" d="M98 614v68l443 403l86 -96l-375 -340l381 -342l-92 -94z" />
<glyph unicode="=" horiz-adv-x="1140" d="M154 369v129h833v-129h-833zM154 793v129h833v-129h-833z" />
<glyph unicode="&#x3e;" horiz-adv-x="749" d="M117 305l381 344l-375 344l86 92l442 -403v-68l-442 -401z" />
<glyph unicode="?" horiz-adv-x="1228" d="M72 1030q0 111 45 195.5t122 133t169 72t196 23.5q85 0 160.5 -12.5t147.5 -43.5t123.5 -78.5t82.5 -121.5t31 -168q0 -49 -7 -91t-22.5 -75t-31 -59t-42 -48t-45.5 -36.5t-51.5 -29.5t-50 -22.5t-49.5 -19.5q-14 -5 -21 -8q-56 -19 -89.5 -35.5t-59.5 -39.5t-38 -56.5 t-18 -78t-6 -112.5h-139q0 137 30.5 221t93 133t175.5 85q42 15 68.5 27t60 34.5t52 49t32 68.5t13.5 95q0 69 -25 122t-64 84t-94 50.5t-107.5 26t-111.5 6.5q-71 0 -135 -14.5t-123 -46t-94.5 -91t-36.5 -139.5h-141zM459 94q0 47 31.5 74t68.5 27t68.5 -27t31.5 -74 q0 -48 -31.5 -75t-68.5 -27t-68.5 27t-31.5 75z" />
<glyph unicode="@" horiz-adv-x="1835" d="M109 596q0 172 60 320.5t166 255t259 167t332 60.5q184 0 331 -47t255 -142.5t166.5 -249t58.5 -356.5q0 -86 -19 -172.5t-53 -160.5t-89 -120.5t-120 -46.5t-112.5 44.5t-47.5 127.5q-60 -95 -165 -148.5t-218 -53.5q-106 0 -201 39.5t-164 107.5t-109 163.5t-40 201.5 q0 150 68.5 268t185.5 181t260 63q117 0 222 -55.5t159 -153.5l4 158l115 -3v-753q0 -35 13.5 -52.5t35.5 -17.5q41 0 72.5 46.5t47.5 114t24 125.5t8 97q0 148 -32 262.5t-90.5 191.5t-145 127t-189.5 71.5t-231 21.5q-197 0 -353.5 -86t-245.5 -242t-89 -354 q0 -153 51.5 -279t143 -210.5t217 -130.5t272.5 -46q163 0 313 78l59 -96q-164 -100 -372 -100q-178 0 -329 56t-257.5 157t-166.5 248t-60 323zM532 586q0 -159 109.5 -271t271.5 -112q74 0 136.5 21t106.5 57.5t75 85.5t46 105t15 116q0 75 -24 142.5t-69 122t-119 86.5 t-167 32q-166 0 -273.5 -107.5t-107.5 -277.5z" />
<glyph unicode="A" horiz-adv-x="1515" d="M43 0l643 1434h143l644 -1434h-152l-147 332h-832l-147 -332h-152zM399 463h717l-358 815z" />
<glyph unicode="B" horiz-adv-x="1441" d="M199 0v1434h610q98 0 182 -22.5t151.5 -68t106.5 -123t39 -180.5q0 -105 -60.5 -187.5t-164.5 -117.5q126 -37 197 -135t71 -213q0 -86 -30 -154t-79 -111t-118 -71t-141.5 -39.5t-153.5 -11.5h-610zM342 135h467q68 0 129.5 12t120.5 38.5t94 79t35 124.5 q-1 58 -23 105.5t-58 79t-84.5 53.5t-99.5 31.5t-104 9.5h-477v-533zM342 799h477q67 0 124 14t103 42t72.5 76t26.5 111q0 56 -18 100.5t-49 73.5t-74.5 48.5t-91.5 27.5t-103 8h-467v-501z" />
<glyph unicode="C" horiz-adv-x="1452" d="M109 709v8q0 115 28 220q29 109 90 203.5t148.5 164t210.5 109.5t268 40q149 0 283 -54.5t225 -160.5l-88 -88q-175 172 -420 172q-145 0 -261.5 -50.5t-189.5 -136.5t-112 -195t-39 -230q0 -127 38.5 -235.5t112 -190t189.5 -128t262 -46.5q118 0 231.5 45.5 t198.5 130.5l92 -92q-108 -108 -242 -163t-280 -55q-181 0 -324.5 58t-234 159t-138 232t-48.5 283z" />
<glyph unicode="D" horiz-adv-x="1531" d="M199 0v1434h506q141 0 260.5 -39t202.5 -106.5t141.5 -157.5t86 -191t27.5 -209q0 -111 -26 -215t-83 -198.5t-139 -164.5t-203 -111.5t-267 -41.5h-506zM342 133h363q116 0 213 34.5t163.5 93t112.5 136.5t66 163q19 77 18 157v16q-2 108 -38.5 206.5t-104.5 180 t-179 130t-251 48.5h-363v-1165z" />
<glyph unicode="E" horiz-adv-x="1341" d="M199 0v1434h1009v-136h-866v-514h827v-133h-827v-516h885v-135h-1028z" />
<glyph unicode="F" horiz-adv-x="1284" d="M199 0v1434h981v-136h-838v-544h807v-136h-807v-618h-143z" />
<glyph unicode="G" horiz-adv-x="1529" d="M109 709v6q0 160 52 295q53 139 148.5 238t235.5 154.5t307 55.5q145 0 282 -55t244 -160l-86 -92q-85 85 -202 128.5t-238 43.5q-142 0 -258 -50t-190 -135.5t-114 -195.5q-38 -106 -38 -225v-6q0 -95 23.5 -182t72.5 -162t119 -130t169 -86.5t216 -31.5q111 0 218 39 t194 116v363h-469v133h606v-555q-227 -235 -549 -235q-182 0 -326 59t-234 161t-136.5 231.5t-46.5 277.5z" />
<glyph unicode="H" horiz-adv-x="1552" d="M199 0v1434h143v-664h868v664h144v-1434h-144v635h-868v-635h-143z" />
<glyph unicode="I" horiz-adv-x="540" d="M199 0v1434h143v-1434h-143z" />
<glyph unicode="J" horiz-adv-x="1400" d="M53 555h144q0 -198 121 -318t317 -120q198 0 319 118t121 324v741h-526v134h670v-875q0 -265 -162 -421t-422 -156q-256 0 -419 156.5t-163 416.5z" />
<glyph unicode="K" horiz-adv-x="1241" d="M199 0v1434h143v-646l666 646h170v-11l-699 -678l760 -735v-10h-178l-719 694v-694h-143z" />
<glyph unicode="L" horiz-adv-x="1173" d="M199 0v1434h143v-1299h797v-135h-940z" />
<glyph unicode="M" horiz-adv-x="1796" d="M199 0v1434h176l524 -791l518 791h180v-1434h-143v1223l-534 -787h-41l-537 797v-1233h-143z" />
<glyph unicode="N" horiz-adv-x="1550" d="M199 0v1434h90l928 -1164l-9 475v689h144v-1434h-86l-928 1153l4 -424v-729h-143z" />
<glyph unicode="O" d="M106 715q0 152 49 286.5t139.5 236t230 161t309.5 59.5q142 -1 261.5 -41.5t204 -111t144.5 -165.5q60 -94 88 -202q28 -105 27 -217v-8q-1 -114 -29.5 -221t-87.5 -201.5t-143 -165t-204 -111.5t-261 -41q-142 0 -262 41t-205 111.5t-144.5 165.5t-88 202t-28.5 222z M250 713q2 -120 39 -227t107 -192t183 -135t255 -50t255 51t182.5 136.5t106 192t37.5 224.5q0 98 -22.5 187t-70 166t-115 134t-163.5 89.5t-210 33.5q-141 0 -254 -47.5t-184.5 -131t-109.5 -193.5q-36 -104 -36 -225v-13z" />
<glyph unicode="P" horiz-adv-x="1390" d="M199 0v1434h641q132 0 235.5 -52.5t157 -137t78.5 -186.5q12 -51 12 -102t-12 -102q-25 -102 -78.5 -186.5t-157 -137.5t-235.5 -53h-498v-477h-143zM342 612h498q81 0 147 29.5t106 77.5t62 110t22 126t-22 126t-62 110t-106 77.5t-147 29.5h-498v-686z" />
<glyph unicode="Q" horiz-adv-x="1669" d="M106 727q1 115 29.5 221.5t88.5 199t144.5 161t204 108t261.5 39.5q143 0 263 -39.5t204.5 -108.5t144 -162t87.5 -200.5t28 -224.5q0 -131 -41 -257t-119 -226l178 -175l-98 -102l-181 176q-187 -153 -466 -153q-144 0 -265 40t-206 109t-144 163.5t-87 203.5 q-26 104 -26 219v8zM250 725v-8q0 -92 22 -176q23 -88 70.5 -165t116 -134t165 -90t210.5 -33q142 0 255.5 50.5t184 135.5t106.5 192q35 101 35 214v12q-1 99 -23.5 187.5t-69 164t-114 130t-163.5 85.5t-211 31q-132 0 -243 -47.5t-185.5 -128.5t-115.5 -189 q-40 -106 -40 -225v-6z" />
<glyph unicode="R" horiz-adv-x="1449" d="M199 0v1434h643q116 0 208 -37t149 -100.5t87 -144t31 -173.5v-6q-1 -81 -25 -155q-26 -76 -76.5 -137t-135.5 -99t-195 -43l489 -539h-186l-475 528h-371v-528h-143zM342 664h492q166 0 253 87t87 228t-86 230t-246 89h-500v-634z" />
<glyph unicode="S" horiz-adv-x="1351" d="M84 295l125 67q35 -66 90 -115.5t119 -77.5t129.5 -41t134.5 -13q58 0 112.5 6.5t113.5 25t102.5 48t71.5 80t28 116.5q0 41 -13 75t-33.5 59.5t-55.5 46.5t-68.5 35.5t-83.5 27.5t-89 21t-95 18q-69 12 -115.5 21.5t-108 26.5t-102 35.5t-84 47.5t-69 64t-42 83.5 t-16.5 106.5v5q1 84 33 152q34 70 88 113.5t127 73t146.5 41.5t150.5 12q373 0 534 -250l-120 -67q-58 94 -170.5 137t-241.5 45q-73 0 -138.5 -12t-128 -39.5t-99.5 -81.5t-37 -129q0 -49 22 -87t55.5 -63t91.5 -45t109 -31.5t129 -25.5q63 -11 106.5 -20t101 -23 t97.5 -30.5t85 -39.5t74.5 -52t55 -65.5t37.5 -84t12 -103.5q-1 -94 -36 -167t-91 -118.5t-133 -74.5t-153.5 -40.5t-159.5 -11.5q-197 0 -358 78t-240 240z" />
<glyph unicode="T" horiz-adv-x="1220" d="M33 1298v136h1155v-136h-506v-1298h-143v1298h-506z" />
<glyph unicode="U" horiz-adv-x="1503" d="M182 559v875h144v-875q0 -200 121.5 -320t308.5 -120q83 0 157.5 27.5t134.5 80t95 138.5t35 194v875h143v-875q0 -141 -44 -252t-122 -180t-179 -105t-220 -36t-221.5 36t-182 105t-125 180t-45.5 252z" />
<glyph unicode="V" horiz-adv-x="1478" d="M51 1434h158l532 -1280l525 1280h159l-604 -1438h-159z" />
<glyph unicode="W" horiz-adv-x="2211" d="M63 1434h162l418 -1241l418 1241h90l418 -1241l420 1241h159l-508 -1438h-145l-215 616l-174 543l-172 -541l-215 -618h-148z" />
<glyph unicode="X" horiz-adv-x="1273" d="M25 0v4l518 729l-486 697v4h160l217 -310l203 -303l211 312l213 301h156v-4l-486 -697l518 -729v-4h-168l-233 332l-211 315l-223 -330l-226 -317h-163z" />
<glyph unicode="Y" horiz-adv-x="1357" d="M55 1430v4h166l457 -717l463 717h168v-4l-559 -852v-578h-144v578z" />
<glyph unicode="Z" horiz-adv-x="1220" d="M45 0v74l877 1226h-797v134h1016v-62l-891 -1233h891v-139h-1096z" />
<glyph unicode="[" horiz-adv-x="653" d="M182 -348v1808h398v-129h-261v-1554h261v-125h-398z" />
<glyph unicode="\" horiz-adv-x="993" d="M53 1559h146l743 -1727h-143z" />
<glyph unicode="]" horiz-adv-x="653" d="M74 -217h258v1550h-258v129h397v-1808h-397v129z" />
<glyph unicode="^" horiz-adv-x="1214" d="M102 764l445 670h117l448 -670l-4 -8h-145l-357 544l-362 -544h-138z" />
<glyph unicode="_" horiz-adv-x="1247" d="M143 -45h961v-123h-961v123z" />
<glyph unicode="`" horiz-adv-x="479" d="M47 1430v4h168l152 -254v-9h-129z" />
<glyph unicode="a" horiz-adv-x="1298" d="M94 506q0 155 70 275t187 182.5t261 62.5q123 0 233 -56t165 -159v201h129v-1012h-127v201q-63 -108 -172.5 -164.5t-229.5 -56.5q-220 0 -368 145t-148 381zM231 506q0 -176 111 -286.5t274 -110.5q94 0 170.5 34t123.5 89.5t72.5 127t25.5 145.5t-25.5 145.5t-72.5 127 t-123.5 89.5t-170.5 34q-163 0 -274 -110t-111 -285z" />
<glyph unicode="b" horiz-adv-x="1300" d="M160 0v1434h137v-623q54 107 162.5 163t234.5 56q144 0 258.5 -59.5t183 -180t68.5 -284.5t-68 -284t-182.5 -180t-259.5 -60q-272 0 -397 213l-8 -195h-129zM301 508q0 -175 109.5 -285t275.5 -110q164 0 272.5 104.5t108.5 288.5q0 186 -108.5 289.5t-272.5 103.5 q-163 0 -274 -110t-111 -281z" />
<glyph unicode="c" horiz-adv-x="1056" d="M94 506q0 120 40.5 219t111.5 164.5t166.5 101t205.5 35.5q207 0 359 -149l-90 -89q-112 109 -266 109q-167 0 -278.5 -105.5t-111.5 -285.5q0 -183 110.5 -287t276.5 -104q167 0 281 114l94 -92q-156 -153 -375 -153q-108 0 -203 35.5t-166.5 101t-113 165t-41.5 220.5z " />
<glyph unicode="d" horiz-adv-x="1300" d="M96 506q0 164 68 284.5t182.5 180t259.5 59.5q126 0 235 -56t163 -163v623h137v-1434h-133l-4 203q-60 -106 -167 -163.5t-231 -57.5q-145 0 -259.5 60t-182.5 180t-68 284zM233 506q0 -184 108 -288.5t273 -104.5t274 110t109 285q0 171 -110 281t-273 110 q-107 0 -192 -43.5t-137 -134t-52 -215.5z" />
<glyph unicode="e" horiz-adv-x="1200" d="M94 508q0 227 146 374.5t372 147.5q92 0 172 -22t146.5 -68t111.5 -114t65 -164q13 -62 13 -133q0 -39 -4 -80h-880q13 -155 120 -245.5t262 -90.5q97 0 194 37t149 102l92 -82q-72 -90 -191 -139t-244 -49q-230 0 -377 143.5t-147 382.5zM236 565h751q-3 160 -108.5 251 t-264.5 91q-154 0 -256 -90t-122 -252z" />
<glyph unicode="f" horiz-adv-x="761" d="M70 883v118h200v84q0 168 82.5 263.5t241.5 95.5q116 0 217 -72l-59 -102q-85 51 -156 51q-188 0 -188 -236v-84h323v-118h-323v-883h-138v883h-200z" />
<glyph unicode="g" horiz-adv-x="1251" d="M96 539q0 119 47 216t124 157t169.5 92t190.5 32q76 0 160 -22t139 -60l106 127l94 -77l-108 -130q66 -73 100.5 -148t34.5 -187q0 -143 -79 -262.5t-226 -161.5q144 -39 221.5 -123t77.5 -209q0 -92 -43.5 -166.5t-116.5 -121.5t-165.5 -72t-194.5 -25 q-223 0 -368 112.5t-144 305.5h137q-1 -91 53.5 -157.5t138 -97t183.5 -30.5q73 0 138.5 14.5t121 43.5t88.5 79t33 115q0 64 -32.5 115t-87.5 81.5t-121.5 46t-139.5 15.5q-238 0 -384.5 133t-146.5 365zM236 539q0 -180 109 -275.5t282 -95.5q171 0 280 108t109 263 q0 91 -32.5 163t-87.5 116t-123.5 66.5t-145.5 22.5q-57 0 -112 -13.5t-106 -43t-89 -72t-61 -104t-23 -135.5z" />
<glyph unicode="h" horiz-adv-x="1216" d="M160 0v1434h135v-598q114 186 352 190q206 0 314 -124t108 -335v-567h-137v567q0 156 -76 242t-225 86q-146 0 -240 -100.5t-94 -249.5v-545h-137z" />
<glyph unicode="i" horiz-adv-x="456" d="M133 1329q0 46 30.5 72t67 26t67 -26t30.5 -72t-30.5 -72t-67 -26t-67 26t-30.5 72zM160 0h137v1016h-137v-1016z" />
<glyph unicode="j" horiz-adv-x="456" d="M-176 -449q97 -57 192 -57q82 0 138.5 26t87 77t43 113.5t12.5 148.5v1155h-137v-1155q0 -46 -2 -75.5t-10.5 -62t-24 -51t-43.5 -31t-68 -12.5q-75 0 -145 37zM131 1337q0 46 30.5 72t67 26t67 -26t30.5 -72t-30.5 -72t-67 -26t-67 26t-30.5 72z" />
<glyph unicode="k" horiz-adv-x="987" d="M160 0v1434h135v-856l442 434h174v-8l-485 -469l545 -527v-8h-176l-500 485v-485h-135z" />
<glyph unicode="l" horiz-adv-x="485" d="M174 0v1434h137v-1434h-137z" />
<glyph unicode="m" horiz-adv-x="1902" d="M160 0v1012h129l6 -158q47 90 130.5 133t182.5 43q77 0 144.5 -22t126 -76t86.5 -135q49 115 147 174t217 59q193 0 309.5 -120t116.5 -320v-590h-137v590q0 137 -79.5 224t-211.5 87t-215.5 -90t-83.5 -225v-586h-137v586q0 135 -82.5 225t-214.5 90t-214.5 -90 t-82.5 -225v-586h-137z" />
<glyph unicode="n" horiz-adv-x="1245" d="M160 0v1012h131l4 -170q61 93 153 139.5t199 46.5q203 0 327 -119t124 -340v-569h-140v567q0 161 -87.5 246.5t-241.5 85.5q-146 -1 -239 -100.5t-93 -247.5v-551h-137z" />
<glyph unicode="o" horiz-adv-x="1228" d="M94 504q0 234 146 380t374 146q224 0 372.5 -147t148.5 -379t-147 -376t-374 -144q-224 0 -372 144t-148 376zM231 504q0 -176 107 -283.5t276 -107.5q171 0 277 107.5t106 283.5q0 175 -107.5 288t-275.5 113t-275.5 -113t-107.5 -288z" />
<glyph unicode="p" horiz-adv-x="1300" d="M160 -483v1495h133l4 -215q59 107 168.5 169t241.5 62q218 -6 357.5 -147.5t139.5 -374.5q0 -243 -143 -384.5t-369 -141.5q-123 0 -230.5 57t-166.5 168v-688h-135zM307 504q0 -169 108 -280t271 -111q166 0 273.5 104t107.5 289q0 184 -106.5 286.5t-274.5 102.5 q-166 0 -272.5 -110.5t-106.5 -280.5z" />
<glyph unicode="q" horiz-adv-x="1300" d="M96 506q0 233 140 374.5t358 147.5q132 0 241.5 -62t168.5 -169l4 215h133v-1495h-135v688q-59 -111 -166.5 -168t-231.5 -57q-226 0 -369 141.5t-143 384.5zM233 506q0 -185 107.5 -289t273.5 -104q163 0 271 111t108 280q0 170 -106.5 280.5t-272.5 110.5 q-168 0 -274.5 -102.5t-106.5 -286.5z" />
<glyph unicode="r" horiz-adv-x="856" d="M160 0v1012h129l8 -166q46 94 133 138t188 44q68 0 121 -16.5t109 -55.5l-64 -114q-77 53 -174 53q-132 -2 -222.5 -92.5t-90.5 -227.5v-575h-137z" />
<glyph unicode="s" horiz-adv-x="1021" d="M76 176l86 94q60 -82 158.5 -122t205.5 -42q48 0 92.5 7.5t88 25.5t70 53t26.5 84q0 39 -16 68t-39 46.5t-66 31t-78 20.5t-94 15q-49 7 -84 13.5t-79.5 18.5t-75.5 25.5t-63 35t-51.5 47.5t-32.5 62t-13 80q0 75 35 133t94 92.5t130 51.5q67 16 139 16h9q233 0 381 -137 l-80 -90q-65 60 -136 81t-163 21h-8q-72 0 -130 -16q-62 -17 -100 -55q-37 -37 -36 -88v-5q1 -42 24.5 -72.5t68.5 -48.5t84.5 -27t98.5 -17q166 -25 237 -52q179 -74 181 -252q-1 -77 -37 -135.5t-96 -92t-131.5 -50t-151.5 -16.5q-139 0 -257 48t-191 148z" />
<glyph unicode="t" horiz-adv-x="802" d="M72 893v117h207v286l137 15v-301h327v-117h-327v-571q0 -104 37.5 -157.5t134.5 -53.5q64 0 147 39l43 -115q-104 -49 -194 -49h-5q-300 0 -300 336v571h-207z" />
<glyph unicode="u" horiz-adv-x="1241" d="M145 442v570h138v-568q0 -157 88 -244q86 -85 236 -85h7q145 0 238.5 99t93.5 247v551h135v-1012h-127l-4 170q-61 -93 -154 -138.5t-204 -47.5q-200 0 -323.5 122.5t-123.5 335.5z" />
<glyph unicode="v" horiz-adv-x="1134" d="M66 1012h151l350 -862l351 862h151l-426 -1014h-151z" />
<glyph unicode="w" horiz-adv-x="1705" d="M74 1012h151l287 -862l287 862h108l287 -862l285 862h151l-356 -1014h-156l-149 408l-115 382l-117 -385l-149 -405h-156z" />
<glyph unicode="x" horiz-adv-x="1003" d="M35 0v4l381 516l-355 486v6h164l277 -398l274 398h166v-6l-354 -486l381 -516v-4h-164l-303 424l-303 -424h-164z" />
<glyph unicode="y" horiz-adv-x="1114" d="M72 1012h153l215 -559l113 -291l115 291l235 559h152l-641 -1495h-150l213 495z" />
<glyph unicode="z" horiz-adv-x="954" d="M63 0v51l605 836h-570v125h772v-60l-598 -821h600v-131h-809z" />
<glyph unicode="{" horiz-adv-x="651" d="M76 547v106q155 0 155 224v278q0 184 80 257.5t267 37.5v-100q-124 21 -168.5 -21.5t-44.5 -175.5v-276q0 -36 -1 -58t-5 -54.5t-13.5 -54.5t-25 -45.5t-41 -39.5t-60.5 -25q35 -9 60.5 -25t41 -39.5t25 -45.5t13.5 -55t5 -55t1 -58v-295q0 -131 43 -170t170 -19v-106 q-55 -8 -99 -9.5t-79 6t-61 21t-44.5 36.5t-31 50.5t-19.5 67t-10 81.5t-3 97v240q0 45 -5.5 80t-21 70.5t-48 55t-80.5 19.5z" />
<glyph unicode="|" horiz-adv-x="503" d="M182 -225v1693h140v-1693h-140z" />
<glyph unicode="}" horiz-adv-x="651" d="M76 -172q126 -22 168.5 17t42.5 171v295q0 36 1 57.5t5 55t13.5 55.5t25 46t41.5 40t61 25q-42 11 -71 33.5t-43.5 46t-22.5 62t-9 64t-1 70.5v277q0 132 -44 174.5t-167 21.5v101q187 34 265.5 -38.5t78.5 -256.5v-279q0 -225 158 -225v-106q-158 0 -158 -224v-241 q0 -55 -3 -97t-10 -81.5t-19 -67t-30.5 -50.5t-44 -36.5t-60 -21t-78.5 -6.5t-99 9v109z" />
<glyph unicode="~" horiz-adv-x="1290" d="M154 584q52 141 162.5 187t228.5 -17l243 -121q43 -19 78.5 -23.5t68 5t58 41t41.5 85.5l107 -36q-46 -147 -143.5 -197t-239.5 8l-242 123q-89 47 -157 22t-105 -118z" />
<glyph unicode="&#xa1;" horiz-adv-x="481" d="M135 915q0 47 31.5 74t70 27t70 -27t31.5 -74q0 -48 -31.5 -75t-70 -27t-70 27t-31.5 75zM168 -428h145v1122h-145v-1122z" />
<glyph unicode="&#xa2;" horiz-adv-x="1097" d="M96 483q0 210 127 349.5t330 166.5v129h133v-129q176 -22 307 -147l-88 -88q-58 55 -132 85t-150 30q-166 0 -279 -106.5t-113 -289.5q0 -124 54 -214t141.5 -133.5t196.5 -43.5q75 0 148 32t132 89l90 -98q-133 -129 -307 -148v-145h-133v147q-200 24 -328.5 161 t-128.5 353z" />
<glyph unicode="&#xa3;" horiz-adv-x="1329" d="M121 0v133q94 83 141.5 166t52.5 157t-8 156h-186v119h160q-1 4 -8.5 32t-9.5 35.5t-8.5 33t-8.5 37.5t-6.5 35.5t-6 40t-3 38t-1.5 41.5q0 138 67 235.5t177.5 143t253.5 45.5q99 0 180 -20t147 -63.5t104 -120t40 -181.5h-129q-1 74 -30.5 127t-80 81t-107 40 t-124.5 12q-164 0 -263 -80t-99 -219q0 -35 5.5 -77t11 -69t17 -78t15.5 -69h512v-119h-486q50 -305 -157 -483h927v-129h-1089z" />
<glyph unicode="&#xa4;" horiz-adv-x="1234" d="M154 291l122 121q-79 109 -78.5 248.5t78.5 248.5l-122 121l102 103l119 -123q106 69 243 69q134 0 240 -69l123 123l100 -103l-120 -119q77 -110 76 -251t-79 -248l123 -121l-100 -101l-125 123q-98 -67 -240 -67q-136 0 -239 67l-121 -123zM322 662q0 -122 78.5 -211 t215.5 -89q93 0 162 44t101 111t32 145q0 124 -78 212.5t-217 88.5q-93 0 -161 -43.5t-100.5 -111t-32.5 -146.5z" />
<glyph unicode="&#xa5;" horiz-adv-x="1378" d="M63 1430v4h166l457 -721l463 721h168v-4l-492 -750h246v-113h-313v-123h313v-112h-313v-332h-144v332h-321v112h321v123h-321v113h254z" />
<glyph unicode="&#xa6;" horiz-adv-x="497" d="M182 -182v747h133v-747h-133zM182 700v748h133v-748h-133z" />
<glyph unicode="&#xa7;" horiz-adv-x="1148" d="M117 162l96 90q63 -82 160.5 -122t206.5 -40q51 0 100 8.5t95.5 26.5t76 53t31.5 82q1 30 -9.5 53.5t-34.5 40t-49 28t-66.5 20t-72 13.5t-80.5 11q-426 47 -426 285q0 72 51.5 138.5t137.5 94.5q-87 29 -135.5 87t-48.5 143q1 61 27 111t68.5 82.5t99.5 54.5t117 31.5 t124 8.5q255 0 397 -139l-88 -84q-69 58 -142 79t-169 21q-123 2 -209.5 -41t-85.5 -122q1 -43 27.5 -74t75.5 -49t89.5 -26.5t98.5 -16.5q58 -7 102.5 -14.5t101 -21.5t96.5 -35.5t76 -51t52.5 -73t13.5 -97.5q-3 -89 -57.5 -144t-143.5 -77q95 -28 150 -88.5t51 -151.5 q-2 -66 -32.5 -118t-76 -84t-105.5 -53.5t-117 -29.5t-116 -8q-142 0 -266 51.5t-192 147.5zM285 715q0 -44 33.5 -79.5t86.5 -55t117.5 -29t128.5 -1t117 27t85.5 55.5t31.5 86q0 44 -33.5 80.5t-87 56.5t-118 31t-129 4t-117 -26t-85 -58t-30.5 -92z" />
<glyph unicode="&#xa8;" horiz-adv-x="931" d="M129 1376q0 56 45 79t90 0t45 -79t-45 -79t-90 0t-45 79zM586 1376q0 56 45 79t90 0t45 -79t-45 -79t-90 0t-45 79z" />
<glyph unicode="&#xa9;" horiz-adv-x="1708" d="M113 715q0 123 31.5 234.5t94 205t150.5 162t208 107t259 38.5t258 -38.5t206.5 -107t150 -162t93.5 -205t31 -234.5q0 -122 -31 -233.5t-93.5 -205t-150 -163t-206.5 -108t-258 -38.5q-173 0 -315.5 59.5t-235 162.5t-142.5 238t-50 288zM244 715q0 -132 42 -246 t118.5 -199.5t193 -134.5t258.5 -49q188 0 327.5 85t209 226t69.5 318q0 133 -41 247.5t-116.5 200.5t-191 135.5t-257.5 49.5t-258.5 -49.5t-193 -135t-118.5 -201t-42 -247.5zM477 719q0 -173 116.5 -286.5t289.5 -113.5q163 0 284 121l-88 88q-84 -84 -196 -84 q-118 0 -199.5 78t-81.5 197t81 197.5t200 78.5q111 0 196 -82l86 86q-116 119 -282 119q-173 0 -289.5 -113t-116.5 -286z" />
<glyph unicode="&#xaa;" horiz-adv-x="1015" d="M139 1106q0 157 97.5 248.5t242.5 91.5q74 0 141.5 -34t106.5 -95v119h115v-664h-113l-2 121q-40 -64 -108 -98.5t-142 -34.5q-145 0 -241.5 93.5t-96.5 252.5zM182 508v125h670v-125h-670zM264 1106q0 -101 64.5 -165t158.5 -64q71 0 123.5 34t76.5 84.5t24 109.5 t-24 109.5t-76.5 84.5t-123.5 34q-94 0 -158.5 -63.5t-64.5 -163.5z" />
<glyph unicode="&#xab;" horiz-adv-x="890" d="M96 608l285 449h145v-6l-278 -443q30 -48 90 -141.5t105.5 -167.5t82.5 -143h-145zM358 608l283 449h147v-6l-278 -443l278 -452h-147z" />
<glyph unicode="&#xac;" horiz-adv-x="1046" d="M154 623v129h735v-406h-131v277h-604z" />
<glyph unicode="&#xad;" horiz-adv-x="0" />
<glyph unicode="&#xae;" horiz-adv-x="1703" d="M113 715q0 153 49.5 288t141.5 237.5t233.5 162t314.5 59.5t315 -59.5t233.5 -162t141 -237.5t49.5 -288t-49.5 -288t-141 -238t-233.5 -162.5t-315 -59.5q-139 0 -258 38.5t-206.5 108t-150 163t-93.5 205t-31 233.5zM244 715q1 -178 71 -319.5t209.5 -226.5t327.5 -85 q142 0 258 49t192 134.5t117 200.5t41 247t-41 247t-117 200.5t-192 134.5t-258 49q-188 0 -327.5 -85t-209.5 -226.5t-71 -319.5zM573 334h117v280h154l237 -280h129v24l-231 267q55 8 97.5 33.5t68 60.5t37 78t8 86.5t-22.5 84.5t-51 72.5t-82 50.5t-110 19h-351v-776z M690 721v278h234q40 0 71.5 -15.5t47.5 -40t23.5 -54t-0.5 -59t-25 -54t-48.5 -40t-72.5 -15.5h-230z" />
<glyph unicode="&#xaf;" horiz-adv-x="833" d="M72 1321v117h665v-117h-665z" />
<glyph unicode="&#xb0;" horiz-adv-x="663" d="M112 1270q1 40 16.5 78t42.5 68t70 48.5t95 18.5q60 0 107 -23.5t71 -61t35.5 -83t0 -91t-35.5 -83t-71 -61t-107 -23.5q-55 0 -99.5 18.5t-71 48.5t-40.5 68t-13 78zM211 1269q-1 -46 32 -84t93 -38q57 0 89 38t32 84t-32 84t-89 38t-90.5 -38t-34.5 -84z" />
<glyph unicode="&#xb1;" horiz-adv-x="1083" d="M152 698v123h325v328h127v-328h326v-123h-326v-336h-127v336h-325zM164 88v123h758v-123h-758z" />
<glyph unicode="&#xb2;" horiz-adv-x="741" d="M88 860v172q0 208 279 221q81 3 126.5 31.5t45.5 95.5q0 66 -46.5 96.5t-121.5 30.5q-164 0 -164 -123h-115q0 62 23.5 107t64.5 69t89 35t104 11t103.5 -11.5t89 -36t65.5 -70t24 -108.5q0 -55 -17.5 -96t-43 -64t-66 -39t-73 -22t-78.5 -10q-92 -8 -121 -21 q-56 -26 -57 -98v-55h448v-115h-559z" />
<glyph unicode="&#xb3;" horiz-adv-x="741" d="M78 1075h115q4 -114 169 -114q30 0 57 5t55.5 16.5t45.5 37t17 61.5q0 41 -40.5 76t-125.5 35h-115v100h106q42 0 76.5 8.5t60.5 34t27 64.5q0 40 -43 74t-121 34q-63 0 -113.5 -27t-53.5 -91h-107q0 57 23.5 100t63.5 68t87 37t100 12q74 0 135.5 -21t102.5 -69.5 t41 -116.5q0 -55 -31 -99t-82 -59q60 -16 94.5 -63.5t34.5 -96.5q0 -64 -26 -111t-70.5 -71.5t-94 -35.5t-106.5 -11q-56 0 -104 11.5t-89 36.5t-64.5 69.5t-24.5 105.5z" />
<glyph unicode="&#xb4;" horiz-adv-x="458" d="M57 1171v9l154 254h164v-4l-193 -259h-125z" />
<glyph unicode="&#xb5;" horiz-adv-x="1234" d="M176 -459v1469h139v-574q0 -150 98 -239t230 -91q63 -1 121 21t105.5 64.5t75.5 113t28 160.5v545h139v-1010h-121l-12 156q-47 -88 -143 -132.5t-201 -41.5q-107 0 -196.5 43t-125.5 131v-615h-137z" />
<glyph unicode="&#xb6;" horiz-adv-x="1632" d="M66 909q2 100 36 192.5t96.5 167t163 119t224.5 44.5h977v-132h-211v-1740h-140v1740h-507v-1740h-144v829q-121 3 -218 48.5t-156.5 119t-90.5 164t-30 188.5z" />
<glyph unicode="&#xb7;" horiz-adv-x="489" d="M145 586q0 46 31 72.5t68.5 26.5t68.5 -26.5t31 -72.5t-31 -72.5t-68.5 -26.5t-68.5 26.5t-31 72.5z" />
<glyph unicode="&#xb8;" horiz-adv-x="606" d="M51 -324l70 66q50 -75 149 -78q44 0 78.5 19t44.5 55q18 61 -37.5 96.5t-150.5 7.5l-23 21l47 182h101l-31 -111q81 2 133 -31t68 -82t2 -104q-19 -77 -83.5 -117t-144.5 -40q-72 2 -132 31t-91 85z" />
<glyph unicode="&#xb9;" horiz-adv-x="522" d="M74 858v103h139v497l-111 -26v104l226 55v-630h141v-103h-395z" />
<glyph unicode="&#xba;" horiz-adv-x="972" d="M143 1106q0 158 98 249t246 91t247.5 -91.5t99.5 -248.5q0 -159 -99.5 -252.5t-247.5 -93.5q-146 0 -245 93.5t-99 252.5zM178 516v119h610v-119h-610zM270 1106q0 -101 62 -165t155 -64q95 0 157.5 63.5t62.5 165.5q0 100 -62.5 163.5t-157.5 63.5q-93 0 -155 -63.5 t-62 -163.5z" />
<glyph unicode="&#xbb;" horiz-adv-x="886" d="M104 160l279 450l-279 443v8h148l283 -451l-283 -450h-148zM358 160l279 450l-279 443v8h146l284 -451l-284 -450h-146z" />
<glyph unicode="&#xbc;" horiz-adv-x="1501" d="M100 705v102h129v502l-110 -25v100l225 54v-631h135v-102h-379zM285 -4l768 1446h137l-770 -1446h-135zM827 250l381 485h133v-473h89v-108h-89v-152h-112v152h-393zM961 262h268v340z" />
<glyph unicode="&#xbd;" horiz-adv-x="1611" d="M100 707v102h127v498l-110 -27v104l229 56v-631h133v-102h-379zM283 -4l768 1446h137l-770 -1446h-135zM952 0v172q0 204 279 217q172 7 172 131q0 66 -46.5 96.5t-121.5 30.5q-164 0 -164 -123h-115q0 62 23.5 107.5t64.5 70.5t89 36.5t104 11.5q55 0 103 -12t90 -37.5 t66 -71.5t24 -109q0 -53 -17.5 -94t-43.5 -65.5t-65 -41.5t-74.5 -24.5t-78.5 -11.5q-93 -8 -123 -22q-51 -24 -51 -91v-55h444v-115h-559z" />
<glyph unicode="&#xbe;" horiz-adv-x="1579" d="M88 940h117q5 -113 164 -113q29 0 55.5 5t54 17t44 37t16.5 60q0 40 -41.5 74.5t-124.5 34.5h-111v98h103q67 0 114 23.5t47 78.5q0 41 -41.5 74t-119.5 33q-27 0 -52 -5t-51 -17t-42 -36.5t-17 -58.5h-105q0 107 78.5 160t190.5 53t192 -52.5t80 -150.5 q0 -56 -30.5 -97.5t-80.5 -55.5q58 -14 91.5 -60.5t33.5 -95.5q0 -62 -25 -108t-67.5 -70.5t-91 -35.5t-104.5 -11q-53 0 -100 11.5t-87.5 36t-64.5 68.5t-25 103zM389 -6l768 1448h133l-770 -1448h-131zM903 248l373 485h141v-473h90v-108h-90v-152h-112v152h-394z M1036 260h269v340z" />
<glyph unicode="&#xbf;" horiz-adv-x="1191" d="M70 -12q1 -105 44 -188t118.5 -134t172 -77.5t209.5 -26.5q144 0 258 47.5t184 147t70 237.5h-139q-3 -141 -110 -221t-263 -80q-77 0 -146.5 17t-126.5 51.5t-90.5 93t-33.5 133.5q0 61 18 107.5t53.5 77.5t70.5 50t85 37q113 37 173.5 87t88 134t27.5 226 q-23 0 -70.5 1t-72.5 1q0 -28 -3 -68t-3 -53q0 -48 -17 -84t-45.5 -59t-65.5 -41.5t-78.5 -35.5t-83.5 -36t-80.5 -47.5t-69 -66.5t-50.5 -96.5t-24 -133.5zM555 932q0 38 21 64t50.5 32t59.5 -0.5t51 -33t21 -64.5t-21 -64t-51 -32t-59.5 0.5t-50.5 33t-21 64.5z" />
<glyph unicode="&#xc0;" horiz-adv-x="1515" d="M43 0l643 1434h143l644 -1434h-152l-147 332h-832l-147 -332h-152zM399 463h717l-358 815zM500 1841v4h168l151 -254v-8h-129z" />
<glyph unicode="&#xc1;" horiz-adv-x="1515" d="M43 0h152l147 332h832l147 -332h152l-644 1434h-143zM399 463l359 815l358 -815h-717zM690 1583v8l154 254h164v-4l-193 -258h-125z" />
<glyph unicode="&#xc2;" horiz-adv-x="1515" d="M43 0h152l147 332h832l147 -332h152l-644 1434h-143zM399 463l359 815l358 -815h-717zM414 1569v14l295 272h96l293 -272v-14h-146l-196 178l-197 -178h-145z" />
<glyph unicode="&#xc3;" horiz-adv-x="1515" d="M43 0l643 1434h143l644 -1434h-152l-147 332h-832l-147 -332h-152zM399 463h717l-358 815zM483 1653q17 79 72.5 117t128.5 24q21 -3 54 -18.5t60.5 -28t56.5 -19t51.5 9t35.5 54.5l92 -37q-16 -85 -71.5 -120t-124.5 -21q-21 6 -57.5 23.5t-63 28t-56 15.5t-51.5 -11 t-35 -54z" />
<glyph unicode="&#xc4;" horiz-adv-x="1515" d="M43 0h152l147 332h832l147 -332h152l-644 1434h-143zM399 463l359 815l358 -815h-717zM442 1673q0 56 45 79t90.5 0t45.5 -79t-45.5 -79t-90.5 0t-45 79zM899 1673q0 56 45 79t90 0t45 -79t-45 -79t-90 0t-45 79z" />
<glyph unicode="&#xc5;" horiz-adv-x="1536" d="M43 0l637 1421q-65 21 -102 71.5t-37 125.5q0 99 67.5 155t161.5 56t164 -56.5t70 -154.5q0 -74 -40.5 -126t-107.5 -73l637 -1419h-158l-151 338h-834l-149 -338h-158zM408 471h718l-188 430l-170 412l-174 -418zM647 1617q0 -44 32 -81t89 -37q59 0 93 37t33.5 81 t-34 81t-92.5 37q-57 0 -89 -37t-32 -81z" />
<glyph unicode="&#xc6;" horiz-adv-x="1871" d="M-29 0l881 1434h887v-134h-688v-512h655v-133h-655v-518h710v-137h-850v453h-497l-271 -453h-172zM498 588h413v342l4 356h-6z" />
<glyph unicode="&#xc7;" horiz-adv-x="1454" d="M111 709q-1 119 28 228t90 203.5t148.5 164t210.5 109.5t268 40q149 0 283 -54.5t225 -160.5l-88 -88q-175 172 -420 172q-145 0 -261.5 -50.5t-189.5 -136.5t-112 -195t-39 -230q0 -127 38.5 -235.5t112 -190t189.5 -128t262 -46.5q118 0 231.5 45.5t198.5 130.5l92 -92 q-106 -106 -238 -161t-276 -57l-26 -98q124 3 178.5 -63.5t30.5 -153.5q-19 -77 -86 -117.5t-150 -40.5q-74 2 -136.5 31.5t-94.5 85.5l71 66q53 -75 156 -78q46 0 81.5 19t45.5 55q20 60 -38.5 96t-156.5 8l-24 20l47 175q-159 14 -284 77t-204 161.5t-120.5 222.5 t-42.5 266z" />
<glyph unicode="&#xc8;" horiz-adv-x="1341" d="M199 0v1434h1009v-136h-866v-514h827v-133h-827v-516h885v-135h-1028zM524 1847v4h168l152 -254v-8h-129z" />
<glyph unicode="&#xc9;" horiz-adv-x="1341" d="M199 0h1028v135h-885v516h827v133h-827v514h866v136h-1009v-1434zM639 1583v8l154 254h163v-4l-192 -258h-125z" />
<glyph unicode="&#xca;" horiz-adv-x="1341" d="M199 0h1028v135h-885v516h827v133h-827v514h866v136h-1009v-1434zM381 1591v15l289 268h96l289 -268v-15h-144l-194 176l-195 -176h-141z" />
<glyph unicode="&#xcb;" horiz-adv-x="1341" d="M199 0h1028v135h-885v516h827v133h-827v514h866v136h-1009v-1434zM426 1688q0 56 45 79t90 0t45 -79t-45 -79t-90 0t-45 79zM883 1688q0 56 45 79t90 0t45 -79t-45 -79t-90 0t-45 79z" />
<glyph unicode="&#xcc;" horiz-adv-x="540" d="M57 1839v4h152l137 -254v-6h-117zM199 0v1434h143v-1434h-143z" />
<glyph unicode="&#xcd;" horiz-adv-x="540" d="M195 1581v8l137 254h147v-4l-172 -258h-112zM199 0h143v1434h-143v-1434z" />
<glyph unicode="&#xce;" horiz-adv-x="540" d="M-51 1561v14l264 270h86l264 -270v-14h-131l-176 176l-176 -176h-131zM199 0h143v1434h-143v-1434z" />
<glyph unicode="&#xcf;" horiz-adv-x="540" d="M27 1665q0 53 42.5 75t85 0t42.5 -75t-42.5 -75t-85 0t-42.5 75zM199 0h143v1434h-143v-1434zM338 1665q0 53 42.5 75t85 0t42.5 -75t-42.5 -75t-85 0t-42.5 75z" />
<glyph unicode="&#xd0;" horiz-adv-x="1544" d="M59 639v125h152v670h506q141 0 260.5 -39t203 -106.5t142 -157.5t86 -191t27.5 -209q0 -111 -26 -215t-83 -198.5t-139.5 -164.5t-203.5 -111.5t-267 -41.5h-506v639h-152zM354 133h363q116 0 213 34.5t163.5 93t112 136.5t66 163t18.5 173q-2 108 -38.5 206.5 t-104.5 180t-179 130t-251 48.5h-363v-534h353v-125h-353v-506z" />
<glyph unicode="&#xd1;" horiz-adv-x="1550" d="M199 0v1434h90l928 -1164l-9 475v689h144v-1434h-86l-928 1153l4 -424v-729h-143zM502 1632q17 79 72 117.5t128 24.5q21 -3 54.5 -18.5t61 -28t56.5 -19t51.5 9t35.5 54.5l92 -37q-16 -85 -72 -120.5t-125 -21.5q-21 6 -57 23.5t-63 28t-56 15.5t-51 -11t-35 -54z" />
<glyph unicode="&#xd2;" d="M106 715q0 152 49 286.5t139.5 236t230 161t309.5 59.5q142 -1 261.5 -41.5t204 -111t144 -165t88 -203t27.5 -224.5q-1 -114 -29.5 -221t-87.5 -201.5t-143 -165t-204 -111.5t-261 -41q-142 0 -262 41t-205 111.5t-144.5 165.5t-88 202t-28.5 222zM250 713 q2 -120 39 -227t107 -192t183 -135t255 -50t255 51t182.5 136.5t106 192t37.5 224.5q0 98 -22.5 187t-70 166t-115 134t-163.5 89.5t-210 33.5q-141 0 -254 -47.5t-184.5 -131t-109.5 -193.5t-36 -238zM608 1851v4h168l152 -253v-9h-129z" />
<glyph unicode="&#xd3;" d="M106 715q0 -115 28.5 -222t88 -202t144.5 -165.5t205 -111.5t262 -41q141 0 261 41t204 111.5t143 165t87.5 201.5t29.5 221q1 116 -27.5 224.5t-88 203t-144 165t-204 111t-261.5 41.5q-170 0 -309.5 -59.5t-230 -161t-139.5 -236t-49 -286.5zM250 713q-2 128 36 238 t109.5 193.5t184.5 131t254 47.5q114 -1 210 -33.5t163.5 -89.5t115 -134t70 -166t22.5 -187q-1 -118 -37.5 -224.5t-106 -192t-182.5 -136.5t-255 -51t-255 50t-183 135t-107 192t-39 227zM758 1593v9l153 253h164v-4l-192 -258h-125z" />
<glyph unicode="&#xd4;" d="M106 715q0 -115 28.5 -222t88 -202t144.5 -165.5t205 -111.5t262 -41q141 0 261 41t204 111.5t143 165t87.5 201.5t29.5 221q1 116 -27.5 224.5t-88 203t-144 165t-204 111t-261.5 41.5q-170 0 -309.5 -59.5t-230 -161t-139.5 -236t-49 -286.5zM250 713q-2 128 36 238 t109.5 193.5t184.5 131t254 47.5q114 -1 210 -33.5t163.5 -89.5t115 -134t70 -166t22.5 -187q-1 -118 -37.5 -224.5t-106 -192t-182.5 -136.5t-255 -51t-255 50t-183 135t-107 192t-39 227zM512 1599v15l295 272h96l293 -272v-15h-145l-197 179l-197 -179h-145z" />
<glyph unicode="&#xd5;" d="M106 715q0 152 49 286.5t139.5 236t230 161t309.5 59.5q142 -1 261.5 -41.5t204 -111t144 -165t88 -203t27.5 -224.5q-1 -114 -29.5 -221t-87.5 -201.5t-143 -165t-204 -111.5t-261 -41q-142 0 -262 41t-205 111.5t-144.5 165.5t-88 202t-28.5 222zM250 713 q2 -120 39 -227t107 -192t183 -135t255 -50t255 51t182.5 136.5t106 192t37.5 224.5q0 98 -22.5 187t-70 166t-115 134t-163.5 89.5t-210 33.5q-141 0 -254 -47.5t-184.5 -131t-109.5 -193.5t-36 -238zM582 1679q17 79 72 117.5t128 24.5q21 -3 54 -18.5t60.5 -28t56.5 -19 t51.5 9t35.5 54.5l93 -37q-16 -85 -72 -120.5t-125 -21.5q-21 6 -57 23.5t-63 28t-56 15.5t-51 -11t-35 -54z" />
<glyph unicode="&#xd6;" d="M106 715q0 -115 28.5 -222t88 -202t144.5 -165.5t205 -111.5t262 -41q141 0 261 41t204 111.5t143 165t87.5 201.5t29.5 221q1 116 -27.5 224.5t-88 203t-144 165t-204 111t-261.5 41.5q-170 0 -309.5 -59.5t-230 -161t-139.5 -236t-49 -286.5zM250 713q-2 128 36 238 t109.5 193.5t184.5 131t254 47.5q114 -1 210 -33.5t163.5 -89.5t115 -134t70 -166t22.5 -187q-1 -118 -37.5 -224.5t-106 -192t-182.5 -136.5t-255 -51t-255 50t-183 135t-107 192t-39 227zM524 1671q0 56 45 79t90.5 0t45.5 -79t-45.5 -79t-90.5 0t-45 79zM981 1671 q0 56 45 79t90 0t45 -79t-45 -79t-90 0t-45 79z" />
<glyph unicode="&#xd7;" horiz-adv-x="935" d="M137 416l246 246l-242 235l88 88l238 -240l240 242l81 -86l-241 -242l252 -247l-86 -84l-252 247l-244 -245z" />
<glyph unicode="&#xd8;" d="M106 715q0 116 28.5 224t88 203t144.5 165t205 110.5t262 40.5q182 0 329 -72l101 175h147l-137 -238q139 -102 212 -263.5t73 -346.5q-1 -114 -29.5 -221t-87.5 -201.5t-143 -165t-204 -111.5t-261 -41q-168 0 -306 56l-108 -187h-148l144 248q-151 98 -230.5 265.5 t-79.5 359.5zM254 713q0 -149 61.5 -282t176.5 -214l600 1049q-119 53 -258 53q-142 0 -255.5 -50.5t-183.5 -136t-106 -192.5t-35 -227zM600 154q103 -41 234 -41q141 0 254 51t182 136.5t105.5 191t37.5 221.5q0 145 -54 273t-157 212z" />
<glyph unicode="&#xd9;" horiz-adv-x="1503" d="M182 559v875h144v-875q0 -200 121.5 -320t308.5 -120q83 0 157.5 27.5t134.5 80t95 138.5t35 194v875h143v-875q0 -141 -44 -252t-122 -180t-179 -105t-220 -36t-221.5 36t-182 105t-125 180t-45.5 252zM532 1837v4h168l152 -254v-8h-129z" />
<glyph unicode="&#xda;" horiz-adv-x="1503" d="M182 559q0 -141 45.5 -252t125 -180t182 -105t221.5 -36t220 36t179 105t122 180t44 252v875h-143v-875q0 -108 -35 -194t-95 -138.5t-134.5 -80t-157.5 -27.5q-187 0 -308.5 120t-121.5 320v875h-144v-875zM655 1577v8l154 254h164v-4l-193 -258h-125z" />
<glyph unicode="&#xdb;" horiz-adv-x="1503" d="M182 559q0 -141 45.5 -252t125 -180t182 -105t221.5 -36t220 36t179 105t122 180t44 252v875h-143v-875q0 -108 -35 -194t-95 -138.5t-134.5 -80t-157.5 -27.5q-187 0 -308.5 120t-121.5 320v875h-144v-875zM414 1581v14l295 273h96l293 -273v-14h-146l-196 178 l-197 -178h-145z" />
<glyph unicode="&#xdc;" horiz-adv-x="1503" d="M182 559q0 -141 45.5 -252t125 -180t182 -105t221.5 -36t220 36t179 105t122 180t44 252v875h-143v-875q0 -108 -35 -194t-95 -138.5t-134.5 -80t-157.5 -27.5q-187 0 -308.5 120t-121.5 320v875h-144v-875zM438 1665q0 56 45 79t90 0t45 -79t-45 -79t-90 0t-45 79z M895 1665q0 56 45 79t90 0t45 -79t-45 -79t-90 0t-45 79z" />
<glyph unicode="&#xdd;" horiz-adv-x="1357" d="M55 1430l551 -852v-578h144v578l559 852v4h-168l-463 -717l-457 717h-166v-4zM563 1581v8l154 254h164v-4l-193 -258h-125z" />
<glyph unicode="&#xde;" horiz-adv-x="1396" d="M199 0v1434h145v-248h496q116 0 210 -40.5t152 -107t89.5 -151.5t31.5 -173t-31.5 -173t-89.5 -151.5t-152 -107t-210 -40.5h-494v-242h-147zM346 377h494q80 0 145 29t105 76t61.5 107.5t21.5 123.5t-21.5 123.5t-61.5 107.5t-105 76t-145 29h-494v-672z" />
<glyph unicode="&#xdf;" horiz-adv-x="1239" d="M160 0v1067q0 84 25 151t67 111t100 73t122 41.5t136 12.5q92 0 170 -22.5t139 -66.5t95.5 -118t34.5 -170q0 -105 -59 -183.5t-163 -102.5q163 -35 240.5 -142.5t77.5 -259.5q0 -118 -43 -205.5t-114 -135t-162.5 -67.5t-190.5 -10t-195 45v129q109 -46 213 -52 t182 25.5t125.5 100.5t47.5 166q0 77 -23.5 136t-62.5 96t-93.5 60.5t-111 32.5t-121.5 9h-154v123h146q56 0 107.5 10.5t102 35t81.5 73.5t32 116q0 73 -27 125t-73 78.5t-95 37.5t-106 11q-309 0 -309 -264v-471v-596h-141z" />
<glyph unicode="&#xe0;" horiz-adv-x="1298" d="M94 506q0 155 70 275t187 182.5t261 62.5q123 0 233 -56t165 -159v201h129v-1012h-127v201q-63 -108 -172.5 -164.5t-229.5 -56.5q-220 0 -368 145t-148 381zM231 506q0 -176 111 -286.5t274 -110.5q94 0 170.5 34t123.5 89.5t72.5 127t25.5 145.5t-25.5 145.5t-72.5 127 t-123.5 89.5t-170.5 34q-163 0 -274 -110t-111 -285zM422 1444v4h168l151 -254v-8h-129z" />
<glyph unicode="&#xe1;" horiz-adv-x="1298" d="M94 506q0 -236 148 -381t368 -145q120 0 229.5 56.5t172.5 164.5v-201h127v1012h-129v-201q-55 103 -165 159t-233 56q-144 0 -261 -62.5t-187 -182.5t-70 -275zM231 506q0 175 111 285t274 110q94 0 170.5 -34t123.5 -89.5t72.5 -127t25.5 -145.5t-25.5 -145.5 t-72.5 -127t-123.5 -89.5t-170.5 -34q-163 0 -274 110.5t-111 286.5zM553 1182v8l154 254h163v-4l-192 -258h-125z" />
<glyph unicode="&#xe2;" horiz-adv-x="1298" d="M94 506q0 -236 148 -381t368 -145q120 0 229.5 56.5t172.5 164.5v-201h127v1012h-129v-201q-55 103 -165 159t-233 56q-144 0 -261 -62.5t-187 -182.5t-70 -275zM231 506q0 175 111 285t274 110q94 0 170.5 -34t123.5 -89.5t72.5 -127t25.5 -145.5t-25.5 -145.5 t-72.5 -127t-123.5 -89.5t-170.5 -34q-163 0 -274 110.5t-111 286.5zM346 1165v15l289 266h94l287 -266v-15h-142l-192 174l-193 -174h-143z" />
<glyph unicode="&#xe3;" horiz-adv-x="1298" d="M94 506q0 155 70 275t187 182.5t261 62.5q123 0 233 -56t165 -159v201h129v-1012h-127v201q-63 -108 -172.5 -164.5t-229.5 -56.5q-220 0 -368 145t-148 381zM231 506q0 -176 111 -286.5t274 -110.5q94 0 170.5 34t123.5 89.5t72.5 127t25.5 145.5t-25.5 145.5t-72.5 127 t-123.5 89.5t-170.5 34q-163 0 -274 -110t-111 -285zM383 1282q17 79 72.5 117t128.5 24q21 -3 54 -18.5t60.5 -28t56.5 -19t51.5 9t35.5 54.5l92 -37q-16 -85 -72 -120t-125 -21q-21 6 -57 23.5t-63 28t-56 15.5t-51 -11t-35 -54z" />
<glyph unicode="&#xe4;" horiz-adv-x="1298" d="M94 506q0 -236 148 -381t368 -145q120 0 229.5 56.5t172.5 164.5v-201h127v1012h-129v-201q-55 103 -165 159t-233 56q-144 0 -261 -62.5t-187 -182.5t-70 -275zM231 506q0 175 111 285t274 110q94 0 170.5 -34t123.5 -89.5t72.5 -127t25.5 -145.5t-25.5 -145.5 t-72.5 -127t-123.5 -89.5t-170.5 -34q-163 0 -274 110.5t-111 286.5zM354 1339q0 56 45 79t90.5 0t45.5 -79t-45.5 -79t-90.5 0t-45 79zM811 1339q0 56 45 79t90 0t45 -79t-45 -79t-90 0t-45 79z" />
<glyph unicode="&#xe5;" horiz-adv-x="1298" d="M94 506q0 155 70 275t187 182.5t261 62.5q123 0 233 -56t165 -159v201h129v-1012h-127v201q-63 -108 -172.5 -164.5t-229.5 -56.5q-220 0 -368 145t-148 381zM231 506q0 -176 111 -286.5t274 -110.5q94 0 170.5 34t123.5 89.5t72.5 127t25.5 145.5t-25.5 145.5t-72.5 127 t-123.5 89.5t-170.5 34q-163 0 -274 -110t-111 -285zM428 1343q0 86 65 135.5t154 49.5q90 0 155.5 -49t65.5 -136q0 -89 -63.5 -139.5t-159.5 -50.5q-95 0 -156 50t-61 140zM529 1342.5q0 -38.5 31 -70t85 -31.5q57 0 89.5 31.5t32.5 70t-32.5 70t-89.5 31.5 q-55 0 -85.5 -31.5t-30.5 -70z" />
<glyph unicode="&#xe6;" horiz-adv-x="2093" d="M94 506q0 155 69.5 275t186.5 182.5t260 62.5q124 0 232 -55.5t164 -159.5l2 201h110v-193q64 102 167 156.5t228 54.5q86 -1 164.5 -23.5t145.5 -70t113 -114.5t65.5 -163t5.5 -210h-883q13 -154 122.5 -245t264.5 -91q97 0 192.5 37t147.5 102l95 -82 q-72 -90 -191.5 -139t-245.5 -49q-130 0 -232.5 53.5t-162.5 150.5l-2 -186h-108v199q-63 -108 -169.5 -163.5t-226.5 -55.5q-144 0 -260 63.5t-185 184.5t-69 278zM231 506q0 -176 110.5 -285.5t274.5 -109.5q95 0 172 34t124.5 89.5t73 126t25.5 144.5t-25.5 144.5 t-73 126t-124.5 89.5t-172 34q-163 0 -274 -109t-111 -284zM1124 565h756q-4 163 -105 252.5t-268 89.5q-148 0 -255.5 -91.5t-127.5 -250.5z" />
<glyph unicode="&#xe7;" horiz-adv-x="1062" d="M96 506q0 160 70.5 279.5t188.5 180t266 60.5q207 0 362 -152l-90 -88q-114 111 -270 111q-167 0 -278.5 -105.5t-111.5 -285.5q0 -123 53.5 -213.5t140.5 -135t194 -44.5q78 0 152 29t130 85l92 -90q-153 -153 -370 -153l-23 -93q62 1 106.5 -17.5t65 -50t28.5 -69.5 t-3 -76q-19 -77 -84.5 -116t-147.5 -37q-68 0 -128 30t-93 85l70 63q51 -71 137 -74q48 -3 87 14.5t50 55.5q18 60 -37.5 96.5t-150.5 9.5l-25 19l43 170q-187 29 -305.5 164.5t-118.5 347.5z" />
<glyph unicode="&#xe8;" horiz-adv-x="1200" d="M94 508q0 227 146 374.5t372 147.5q92 0 172 -22t146.5 -68t111.5 -113.5t65 -164t9 -213.5h-880q13 -155 120 -245.5t262 -90.5q97 0 194 37t149 102l92 -82q-72 -90 -191 -139t-244 -49q-230 0 -377 143.5t-147 382.5zM236 565h751q-3 160 -108.5 251t-264.5 91 q-154 0 -256 -90t-122 -252zM410 1430v4h168l151 -254v-9h-129z" />
<glyph unicode="&#xe9;" horiz-adv-x="1200" d="M94 508q0 -239 147 -382.5t377 -143.5q125 0 244 49t191 139l-92 82q-52 -65 -149 -102t-194 -37q-155 0 -262 90.5t-120 245.5h880q11 117 -9 213.5t-65 164t-111.5 113.5t-146.5 68t-172 22q-226 0 -372 -147.5t-146 -374.5zM236 565q20 162 122 252t256 90 q159 0 264.5 -91t108.5 -251h-751zM543 1171v9l153 254h164v-4l-192 -259h-125z" />
<glyph unicode="&#xea;" horiz-adv-x="1200" d="M94 508q0 -239 147 -382.5t377 -143.5q125 0 244 49t191 139l-92 82q-52 -65 -149 -102t-194 -37q-155 0 -262 90.5t-120 245.5h880q11 117 -9 213.5t-65 164t-111.5 113.5t-146.5 68t-172 22q-226 0 -372 -147.5t-146 -374.5zM236 565q20 162 122 252t256 90 q159 0 264.5 -91t108.5 -251h-751zM301 1155v14l295 273h96l293 -273v-14h-145l-197 178l-197 -178h-145z" />
<glyph unicode="&#xeb;" horiz-adv-x="1200" d="M94 508q0 -239 147 -382.5t377 -143.5q125 0 244 49t191 139l-92 82q-52 -65 -149 -102t-194 -37q-155 0 -262 90.5t-120 245.5h880q11 117 -9 213.5t-65 164t-111.5 113.5t-146.5 68t-172 22q-226 0 -372 -147.5t-146 -374.5zM236 565q20 162 122 252t256 90 q159 0 264.5 -91t108.5 -251h-751zM326 1341q0 56 45 79t90 0t45 -79t-45 -79t-90 0t-45 79zM782 1341q0 56 45 79t90.5 0t45.5 -79t-45.5 -79t-90.5 0t-45 79z" />
<glyph unicode="&#xec;" horiz-adv-x="460" d="M33 1434v2h157l115 -240v-8h-135zM160 0v1006h141v-1006h-141z" />
<glyph unicode="&#xed;" horiz-adv-x="460" d="M150 1188v8l114 240h158v-2l-137 -246h-135zM160 0h141v1006h-141v-1006z" />
<glyph unicode="&#xee;" horiz-adv-x="460" d="M-16 1174v12l211 252h63l209 -250v-14h-127l-117 141l-119 -141h-120zM160 0h141v1006h-141v-1006z" />
<glyph unicode="&#xef;" horiz-adv-x="460" d="M-6 1348q0 41 28 65t62 24t62 -24t28 -65t-28 -65t-62 -24t-62 24t-28 65zM160 0h141v1006h-141v-1006zM299 1348q0 41 28 65t62 24t62 -24t28 -65t-28 -65t-62 -24t-62 24t-28 65z" />
<glyph unicode="&#xf0;" horiz-adv-x="1239" d="M96 487q0 95 31.5 182.5t91 159t155 116t214.5 48.5q212 7 362 -135q-28 92 -105 180.5t-171 149.5l-80 -111l-80 53l76 107q-94 55 -201 78l33 117q143 -42 246 -95l94 129l80 -55l-90 -123q382 -267 385 -772q3 -239 -138.5 -389t-382.5 -150q-126 0 -227.5 43.5 t-164 116t-95.5 162.5t-33 188zM238 489q0 -74 24 -142t70 -122.5t119.5 -87.5t164.5 -33q92 0 166 33t120 87.5t70.5 122.5t24.5 142t-24.5 141.5t-70.5 122t-120 87t-166 32.5q-91 0 -164.5 -32.5t-119.5 -87t-70 -122t-24 -141.5z" />
<glyph unicode="&#xf1;" horiz-adv-x="1245" d="M160 0v1012h131l4 -170q61 93 153 139.5t199 46.5q203 0 327 -119t124 -340v-569h-140v567q0 161 -87.5 246.5t-241.5 85.5q-146 -1 -239 -100.5t-93 -247.5v-551h-137zM354 1321q17 72 72 107.5t127 23.5q21 -3 54 -17t60.5 -26t56.5 -17.5t51.5 8t35.5 50.5l92 -35 q-16 -78 -71.5 -111t-124.5 -20q-21 6 -57 22t-62.5 26t-55.5 15t-51 -10t-35 -51z" />
<glyph unicode="&#xf2;" horiz-adv-x="1228" d="M94 504q0 234 146 380t374 146q224 0 372.5 -147t148.5 -379t-147 -376t-374 -144q-224 0 -372 144t-148 376zM231 504q0 -176 107 -283.5t276 -107.5q171 0 277 107.5t106 283.5q0 175 -107.5 288t-275.5 113t-275.5 -113t-107.5 -288zM406 1430v4h167l152 -246v-6h-129 z" />
<glyph unicode="&#xf3;" horiz-adv-x="1228" d="M94 504q0 -232 148 -376t372 -144q227 0 374 144t147 376t-148.5 379t-372.5 147q-228 0 -374 -146t-146 -380zM231 504q0 175 107.5 288t275.5 113t275.5 -113t107.5 -288q0 -176 -106 -283.5t-277 -107.5q-169 0 -276 107.5t-107 283.5zM532 1190v8l148 238h158v-4 l-185 -242h-121z" />
<glyph unicode="&#xf4;" horiz-adv-x="1228" d="M94 504q0 -232 148 -376t372 -144q227 0 374 144t147 376t-148.5 379t-372.5 147q-228 0 -374 -146t-146 -380zM231 504q0 175 107.5 288t275.5 113t275.5 -113t107.5 -288q0 -176 -106 -283.5t-277 -107.5q-169 0 -276 107.5t-107 283.5zM287 1163v15l295 272h96 l293 -272v-15h-146l-196 178l-197 -178h-145z" />
<glyph unicode="&#xf5;" horiz-adv-x="1228" d="M94 504q0 234 146 380t374 146q224 0 372.5 -147t148.5 -379t-147 -376t-374 -144q-224 0 -372 144t-148 376zM231 504q0 -176 107 -283.5t276 -107.5q171 0 277 107.5t106 283.5q0 175 -107.5 288t-275.5 113t-275.5 -113t-107.5 -288zM348 1315q17 76 73 112.5 t130 24.5q21 -3 54 -18.5t60.5 -27.5t56.5 -18t51.5 9t35.5 53l92 -37q-16 -82 -71.5 -115.5t-124.5 -19.5q-21 6 -57.5 22t-63.5 26.5t-57 15.5t-52 -10t-35 -52z" />
<glyph unicode="&#xf6;" horiz-adv-x="1228" d="M94 504q0 -232 148 -376t372 -144q227 0 374 144t147 376t-148.5 379t-372.5 147q-228 0 -374 -146t-146 -380zM231 504q0 175 107.5 288t275.5 113t275.5 -113t107.5 -288q0 -176 -106 -283.5t-277 -107.5q-169 0 -276 107.5t-107 283.5zM307 1343q0 56 45 79t90 0 t45 -79t-45 -79t-90 0t-45 79zM764 1343q0 56 45 79t90 0t45 -79t-45 -79t-90 0t-45 79z" />
<glyph unicode="&#xf7;" horiz-adv-x="1144" d="M154 614h837v125h-837v-125zM479 344q0 46 30 72t66.5 26t66.5 -26t30 -72q0 -45 -30 -70.5t-66.5 -25.5t-66.5 25.5t-30 70.5zM479 1004q0 45 30 70.5t66.5 25.5t66.5 -25.5t30 -70.5t-30 -70.5t-66.5 -25.5t-66.5 25.5t-30 70.5z" />
<glyph unicode="&#xf8;" horiz-adv-x="1222" d="M94 504q0 232 147 379t369 147q121 0 224 -47l75 127h138l-113 -188q91 -69 142.5 -178t51.5 -240q0 -232 -146.5 -376t-371.5 -144q-118 0 -213 39l-82 -140h-135l117 197q-95 67 -149 177t-54 247zM231 504q0 -98 37 -176.5t101 -126.5l397 667q-82 35 -156 35 q-164 0 -271.5 -112.5t-107.5 -286.5zM469 139q65 -24 141 -24q166 0 273.5 107t107.5 282q0 185 -127 299z" />
<glyph unicode="&#xf9;" horiz-adv-x="1241" d="M145 442v570h138v-568q0 -157 88 -244t243 -85q145 0 238.5 99t93.5 247v551h135v-1012h-127l-4 170q-61 -93 -154 -138.5t-204 -47.5q-200 0 -323.5 122.5t-123.5 335.5zM408 1430v4h167l152 -254v-9h-129z" />
<glyph unicode="&#xfa;" horiz-adv-x="1241" d="M145 442q0 -213 123.5 -335.5t323.5 -122.5q111 2 204 47.5t154 138.5l4 -170h127v1012h-135v-551q0 -148 -93.5 -247t-238.5 -99q-155 -2 -243 85t-88 244v568h-138v-570zM524 1171v9l154 254h164v-4l-193 -259h-125z" />
<glyph unicode="&#xfb;" horiz-adv-x="1241" d="M145 442q0 -213 123.5 -335.5t323.5 -122.5q111 2 204 47.5t154 138.5l4 -170h127v1012h-135v-551q0 -148 -93.5 -247t-238.5 -99q-155 -2 -243 85t-88 244v568h-138v-570zM299 1165v13l285 264h92l285 -264v-13h-142l-190 172l-189 -172h-141z" />
<glyph unicode="&#xfc;" horiz-adv-x="1241" d="M145 442q0 -213 123.5 -335.5t323.5 -122.5q111 2 204 47.5t154 138.5l4 -170h127v1012h-135v-551q0 -148 -93.5 -247t-238.5 -99q-155 -2 -243 85t-88 244v568h-138v-570zM315 1341q0 56 45.5 79t90.5 0t45 -79t-45 -79t-90.5 0t-45.5 79zM772 1341q0 56 45 79t90 0 t45 -79t-45 -79t-90 0t-45 79z" />
<glyph unicode="&#xfd;" horiz-adv-x="1114" d="M72 1012l405 -1000l-213 -495h150l641 1495h-152l-235 -559l-115 -291l-113 291l-215 559h-153zM473 1188v6l145 240h156v-2l-182 -244h-119z" />
<glyph unicode="&#xfe;" horiz-adv-x="1302" d="M160 -422v1854h133l2 -635q59 106 170.5 168.5t243.5 62.5q105 -3 195.5 -39t157.5 -100.5t105.5 -163t38.5 -219.5q0 -166 -69.5 -287t-184 -180t-260.5 -59q-123 0 -229.5 58t-167.5 171v-631h-135zM307 504q0 -168 109 -279.5t270 -111.5q166 0 273.5 102.5 t107.5 290.5q0 186 -107.5 287.5t-273.5 101.5q-163 0 -271 -111t-108 -280z" />
<glyph unicode="&#xff;" horiz-adv-x="1114" d="M72 1012l405 -1000l-213 -495h150l641 1495h-152l-235 -559l-115 -291l-113 291l-215 559h-153zM264 1356q0 53 43 75t86 0t43 -75q0 -41 -27 -64t-59 -23t-59 23t-27 64zM698 1356q0 53 43 75t86 0t43 -75q0 -41 -27 -64t-59 -23t-59 23t-27 64z" />
<glyph unicode="&#x152;" horiz-adv-x="1990" d="M109 721q0 158 46 290.5t134 230.5t227.5 153t317.5 55q90 0 167 -18v2h859v-129h-730v-514h689v-132h-689v-528l752 2v-133h-885q-82 -16 -163 -16q-177 0 -317 57t-228 158t-134 233.5t-46 288.5zM252 717q0 -149 48 -266t132 -190.5t194.5 -111.5t239.5 -38 q70 3 131 18v1180q-82 20 -163 20q-283 0 -433.5 -166.5t-148.5 -445.5z" />
<glyph unicode="&#x153;" horiz-adv-x="2066" d="M94 504q0 232 147 379t369 147q151 0 267.5 -74.5t173.5 -207.5q54 127 170 204.5t264 77.5q114 0 208.5 -35.5t164.5 -104.5t103 -182.5t19 -258.5q-429 0 -868 -3q15 -154 120 -243.5t259 -89.5q96 0 189 37t145 102l94 -82q-73 -91 -189 -139.5t-241 -48.5 q-151 0 -268.5 74.5t-173.5 201.5q-59 -132 -172 -203t-265 -71q-224 0 -370 144t-146 376zM231 504q0 -175 107 -282t272 -107q166 0 272.5 107t106.5 282q0 174 -108.5 286.5t-270.5 112.5q-164 0 -271.5 -112.5t-107.5 -286.5zM1112 565h741q-4 164 -102 253t-264 89 q-147 0 -251 -91t-124 -251z" />
<glyph unicode="&#x178;" horiz-adv-x="1357" d="M55 1430l551 -852v-578h144v578l559 852v4h-168l-463 -717l-457 717h-166v-4zM379 1655q0 53 43 75t86 0t43 -75q0 -41 -27 -64t-59 -23t-59 23t-27 64zM813 1655q0 53 43 75t86 0t43 -75q0 -41 -27 -64t-59 -23t-59 23t-27 64z" />
<glyph unicode="&#x2c6;" horiz-adv-x="862" d="M66 1155v14l294 273h97l293 -273v-14h-146l-196 178l-197 -178h-145z" />
<glyph unicode="&#x2dc;" horiz-adv-x="688" d="M61 1331q17 79 72.5 117.5t128.5 24.5q21 -3 54 -19t60.5 -28.5t56.5 -18.5t51.5 9t35.5 54l92 -36q-16 -85 -71.5 -120.5t-124.5 -21.5q-21 6 -57 23.5t-63 28t-56 15.5t-51 -11t-35 -54z" />
<glyph unicode="&#x2000;" horiz-adv-x="943" />
<glyph unicode="&#x2001;" horiz-adv-x="1886" />
<glyph unicode="&#x2002;" horiz-adv-x="943" />
<glyph unicode="&#x2003;" horiz-adv-x="1886" />
<glyph unicode="&#x2004;" horiz-adv-x="628" />
<glyph unicode="&#x2005;" horiz-adv-x="471" />
<glyph unicode="&#x2006;" horiz-adv-x="314" />
<glyph unicode="&#x2007;" horiz-adv-x="314" />
<glyph unicode="&#x2008;" horiz-adv-x="235" />
<glyph unicode="&#x2009;" horiz-adv-x="377" />
<glyph unicode="&#x200a;" horiz-adv-x="104" />
<glyph unicode="&#x2010;" horiz-adv-x="1017" d="M145 528v125h727v-125h-727z" />
<glyph unicode="&#x2011;" horiz-adv-x="1017" d="M145 528v125h727v-125h-727z" />
<glyph unicode="&#x2012;" horiz-adv-x="1017" d="M145 528v125h727v-125h-727z" />
<glyph unicode="&#x2013;" horiz-adv-x="1220" d="M147 524v125h926v-125h-926z" />
<glyph unicode="&#x2014;" horiz-adv-x="1435" d="M147 522v125h1141v-125h-1141z" />
<glyph unicode="&#x2018;" horiz-adv-x="456" d="M113 1069l129 367h116l-92 -367h-153z" />
<glyph unicode="&#x2019;" horiz-adv-x="454" d="M123 1061l94 375h152l-129 -375h-117z" />
<glyph unicode="&#x201a;" horiz-adv-x="487" d="M84 -227l94 374h152l-129 -374h-117z" />
<glyph unicode="&#x201c;" horiz-adv-x="745" d="M115 1057l133 373h117l-97 -373h-153zM395 1057l133 373h117l-98 -373h-152z" />
<glyph unicode="&#x201d;" horiz-adv-x="729" d="M119 1073l94 363h152l-129 -363h-117zM399 1073l95 363h151l-129 -363h-117z" />
<glyph unicode="&#x201e;" horiz-adv-x="751" d="M84 -227l94 374h135l-116 -374h-113zM358 -227l95 374h141l-127 -374h-109z" />
<glyph unicode="&#x2022;" horiz-adv-x="798" d="M184 578q0 95 61.5 154t155.5 59q92 0 152.5 -59t60.5 -154q0 -94 -60.5 -152.5t-152.5 -58.5q-94 0 -155.5 58.5t-61.5 152.5z" />
<glyph unicode="&#x2026;" horiz-adv-x="1234" d="M139 78q0 46 30.5 72t67 26t67 -26t30.5 -72t-30.5 -72t-67 -26t-67 26t-30.5 72zM522 78q0 46 30.5 72t67 26t67 -26t30.5 -72t-30.5 -72t-67 -26t-67 26t-30.5 72zM901 78q0 46 30.5 72t67 26t67 -26t30.5 -72t-30.5 -72t-67 -26t-67 26t-30.5 72z" />
<glyph unicode="&#x202f;" horiz-adv-x="377" />
<glyph unicode="&#x2039;" horiz-adv-x="628" d="M96 610l285 451h145v-8l-278 -443q33 -51 260 -413q3 -6 9 -18.5t9 -18.5h-145z" />
<glyph unicode="&#x203a;" horiz-adv-x="630" d="M104 154l279 452l-279 443v6h146l285 -449l-285 -452h-146z" />
<glyph unicode="&#x205f;" horiz-adv-x="471" />
<glyph unicode="&#x20ac;" horiz-adv-x="1249" d="M86 532v119h117q-2 14 -2 58q0 43 2 63h-117v117h135q20 121 73 222t137 178t208 120t276 43q104 0 209 -31l-39 -118q-76 22 -170 22q-240 0 -372.5 -106.5t-180.5 -329.5h541l-31 -117h-536q-2 -18 -2 -61q0 -46 2 -60h508l-27 -119h-457q84 -417 555 -417 q107 0 213 39l41 -129q-127 -45 -254 -45q-155 0 -276.5 39t-205 112.5t-136.5 173t-78 227.5h-133z" />
<glyph unicode="&#x2122;" horiz-adv-x="1619" d="M127 1346v88h559v-88h-231v-486h-101v486h-227zM793 860v574h94l235 -301l238 301h90v-574h-100v412l-222 -268h-18l-217 272v-416h-100z" />
<glyph unicode="&#x25fc;" horiz-adv-x="1013" d="M0 0v1014h1014v-1014h-1014z" />
<glyph unicode="&#xfb01;" horiz-adv-x="1173" d="M70 883h200v-883h138v883h311v118h-311v84q0 236 188 236q70 0 125 -31l45 109q-77 45 -172 45q-159 0 -241.5 -95.5t-82.5 -263.5v-84h-200v-118zM852 1329q0 46 30.5 72t67 26t67 -26t30.5 -72t-30.5 -72t-67 -26t-67 26t-30.5 72zM879 0h137v1016h-137v-1016z" />
<glyph unicode="&#xfb02;" horiz-adv-x="1173" d="M70 883v118h200v84q0 168 82.5 263.5t241.5 95.5q72 0 137 -27l-24 -119q-56 27 -117 27q-182 0 -182 -240v-84h290v-118h-290v-883h-138v883h-200zM862 0v1434h137v-1434h-137z" />
</font>
</defs>
</svg>
