<?xml version="1.0" standalone="no"?>
<!DOCTYPE svg PUBLIC "-//W3C//DTD SVG 1.1//EN" "http://www.w3.org/Graphics/SVG/1.1/DTD/svg11.dtd" >
<svg xmlns="http://www.w3.org/2000/svg" xmlns:xlink="http://www.w3.org/1999/xlink" version="1.1">
<metadata></metadata>
<defs>
<font id="nexa_heavyregular" horiz-adv-x="1617" >
<font-face units-per-em="2048" ascent="1536" descent="-512" />
<missing-glyph horiz-adv-x="485" />
<glyph horiz-adv-x="0" />
<glyph horiz-adv-x="682" />
<glyph unicode=" "  horiz-adv-x="485" />
<glyph unicode="&#x09;" horiz-adv-x="485" />
<glyph unicode="&#xa0;" horiz-adv-x="485" />
<glyph unicode="!" horiz-adv-x="612" d="M127 170q0 49 20 88t51.5 59t70 29.5t77 0t70 -29.5t51.5 -59t20 -88t-20 -87.5t-51.5 -58.5t-70 -29t-77 0t-70 29t-51.5 58.5t-20 87.5zM147 1436h318l-8 -1000h-303q0 168 -3.5 499.5t-3.5 500.5z" />
<glyph unicode="&#x22;" horiz-adv-x="940" d="M131 877v555h268v-555h-268zM537 877v555h272v-555h-272z" />
<glyph unicode="#" horiz-adv-x="1433" d="M74 276v240h217l94 375h-170v235h225l76 308h275l-76 -308h223l78 308h272l-76 -308h148v-237h-207l-96 -373h162v-240h-218l-67 -276h-275l68 276h-225l-68 -276h-272l67 276h-155zM541 502h258l102 405h-258z" />
<glyph unicode="$" horiz-adv-x="1464" d="M66 322l266 129q44 -96 162 -160t245 -64q61 0 106 4t89 16t71.5 32t44.5 54t17 81t-27 83t-75.5 58.5t-107 35.5t-128.5 19q-73 7 -128.5 15t-120.5 24t-112.5 36.5t-94 54.5t-75 77.5t-46 105t-17.5 136.5q1 98 41.5 176.5t109.5 129t154.5 79.5t182.5 37v170h270v-170 q311 -35 432 -291l-252 -117q-31 65 -125 113.5t-209 48.5q-118 0 -202.5 -45.5t-85.5 -130.5q0 -44 24.5 -75t71.5 -48t94 -25.5t113 -13.5q72 -8 131.5 -18t127 -28.5t120 -42.5t102 -61t82.5 -83t52.5 -110t19.5 -140q0 -200 -126.5 -318t-367.5 -143v-195h-281v193 q-185 19 -335 118t-213 253z" />
<glyph unicode="%" horiz-adv-x="1669" d="M70 1114q0 63 21.5 120.5t62 104.5t107 75t149.5 28q108 0 187.5 -48.5t116 -121.5t36.5 -158q0 -64 -21.5 -122t-62.5 -105t-107.5 -75t-148.5 -28q-83 0 -149.5 28t-107 75t-62 105t-21.5 122zM201 -2l942 1434h321l-938 -1434h-325zM293 1114q0 -48 31 -82.5t86 -34.5 t84.5 34.5t29.5 82.5q0 49 -29.5 84t-84.5 35t-86 -35.5t-31 -83.5zM920 315q0 85 36.5 158t116 121.5t187.5 48.5q82 0 148 -28t107 -75t62.5 -104.5t21.5 -120.5q0 -64 -21.5 -122t-62.5 -104.5t-107 -74.5t-148 -28q-109 0 -188 48.5t-115.5 121.5t-36.5 159zM1145 313 q0 -47 31 -80.5t84 -33.5q54 0 83 33t29 81t-29 82.5t-83 34.5q-53 0 -84 -35t-31 -82z" />
<glyph unicode="&#x26;" horiz-adv-x="1468" d="M96 408q-1 108 61 193t173 136q-60 19 -105.5 70.5t-66.5 107.5t-21 105q0 82 24.5 150.5t67.5 115t97.5 81.5t118.5 54.5t125.5 29t123.5 9.5q107 0 197.5 -22.5t166.5 -69.5t123.5 -131t55.5 -197h-293q-11 78 -88 120t-170 40q-97 -2 -164 -49.5t-67 -130.5 q0 -48 21 -82t56.5 -50t71.5 -23t78 -7h668v-244h-115v-184q0 -55 39 -97t104 -28v-315q-55 -10 -108 -3t-96.5 26t-77 61t-49.5 102q-60 -103 -168.5 -152t-237.5 -47q-83 0 -157 12t-146 43t-123.5 78.5t-84 124t-34.5 173.5zM412 451q0 -57 26.5 -97t70 -59t85.5 -27 t88 -8q25 0 57 6t70.5 21t69.5 37t52 59t21 82v149h-286q-121 0 -187.5 -48.5t-66.5 -114.5z" />
<glyph unicode="'" horiz-adv-x="528" d="M131 872v555h266v-555h-266z" />
<glyph unicode="(" horiz-adv-x="739" d="M72 623q0 308 131 554t358 406l148 -203q-163 -134 -248.5 -336.5t-83.5 -420.5q0 -239 80.5 -439.5t240.5 -330.5l-147 -199q-479 317 -479 969z" />
<glyph unicode=")" horiz-adv-x="739" d="M31 1380l147 203q227 -160 358.5 -406t131.5 -554q0 -651 -480 -969l-147 199q160 130 240.5 330.5t80.5 439.5q2 218 -83.5 420.5t-247.5 336.5z" />
<glyph unicode="*" horiz-adv-x="839" d="M86 1143l57 184l183 -67l-11 190h211l-22 -190l192 71l56 -188l-187 -39l135 -154l-159 -119l-117 175l-115 -179l-166 123l127 150z" />
<glyph unicode="+" horiz-adv-x="1017" d="M88 543v258h283v295h270v-295h289v-258h-289v-295h-270v295h-283z" />
<glyph unicode="," horiz-adv-x="538" d="M102 127q0 43 18 77t47.5 51t64.5 25t70 -0.5t64.5 -25.5t47.5 -49.5t18 -73.5q0 -47 -12 -96.5t-41.5 -132t-38.5 -109.5h-158l31 213q-51 8 -81 39t-30 82z" />
<glyph unicode="-" horiz-adv-x="1009" d="M121 471v256h768v-256h-768z" />
<glyph unicode="." horiz-adv-x="540" d="M102 150q0 45 18.5 81t48 54.5t65.5 27t72 0t65.5 -27t48 -54.5t18.5 -81t-18.5 -81t-48 -54.5t-65.5 -27t-72 0t-65.5 27t-48 54.5t-18.5 81z" />
<glyph unicode="/" horiz-adv-x="1042" d="M47 -168l658 1741h288l-659 -1741h-287z" />
<glyph unicode="0" horiz-adv-x="1480" d="M102 614v209q0 131 33.5 240t92.5 185t140.5 129t176 77.5t200.5 24.5q132 0 245.5 -41.5t200 -121.5t136 -206.5t49.5 -286.5v-207q0 -128 -33 -236t-90.5 -185t-137 -130.5t-171.5 -79.5t-194 -26q-103 0 -196.5 24.5t-176.5 76.5t-144 128t-96 185t-35 241zM420 614 q0 -182 87.5 -277t231.5 -95t233 95t89 277v207q0 177 -87 272t-229 95q-144 0 -234.5 -93t-90.5 -274v-207z" />
<glyph unicode="1" horiz-adv-x="927" d="M106 0v262h242v774l-229 -71v278l530 191v-1172h225v-262h-768z" />
<glyph unicode="2" horiz-adv-x="1382" d="M104 0v352q0 93 24 168t68 125.5t99.5 86t125 55t136.5 28t143 8.5q44 0 85.5 7.5t83 25t67 53.5t25.5 86q0 88 -70 136.5t-193 48.5q-106 0 -185 -44.5t-85 -127.5h-307q5 97 40 174t89.5 127t128.5 82.5t152.5 46.5t166.5 14q117 0 219 -27.5t183 -81.5t127.5 -142 t46.5 -200q0 -104 -28.5 -183t-78 -130.5t-123.5 -84t-157.5 -45.5t-186.5 -13q-44 0 -78 -3t-77 -14t-71 -31t-48 -57.5t-20 -89.5v-55h858v-295h-1160z" />
<glyph unicode="3" horiz-adv-x="1394" d="M86 436h322q6 -49 30 -85t62.5 -56t83 -29.5t96.5 -9.5q31 0 63 3.5t72.5 14.5t70.5 29t51 51t21 76q0 22 -3 40t-17.5 44.5t-40 44.5t-76.5 31.5t-121 13.5h-219v260h199q31 0 55.5 1.5t57.5 5.5t57 14t46 25t34 39.5t12 56.5q0 21 -5.5 40.5t-22.5 42t-44 39.5t-74 28 t-108 11q-235 0 -262 -139h-317q8 93 45 168t92.5 123t129.5 80t151.5 45.5t162.5 13.5q94 0 183.5 -20t171 -61.5t138.5 -115t72 -171.5q20 -120 -29.5 -216.5t-152.5 -140.5q125 -51 181.5 -156.5t37.5 -234.5q-12 -76 -45 -136t-82 -99.5t-105.5 -67t-124 -42 t-128.5 -20.5t-129 -6q-86 0 -166.5 15.5t-155.5 51.5t-132 89t-94 132t-44 177z" />
<glyph unicode="4" horiz-adv-x="1400" d="M49 586l787 846h317v-897h164v-277h-164v-260h-313v260h-764zM377 535h463v509z" />
<glyph unicode="5" horiz-adv-x="1347" d="M104 442h316q0 -61 43 -103t100.5 -58.5t122.5 -16.5q27 0 57.5 4t68 17t67 33t49.5 56t20 83q1 56 -26 96.5t-71 60t-85.5 27.5t-83.5 8h-549v783h1051v-287h-754v-221h252q98 0 179.5 -12.5t158 -45t129.5 -84.5t84.5 -134.5t30.5 -190.5q0 -102 -35 -184.5 t-91.5 -135.5t-132.5 -89t-154.5 -51t-160.5 -15q-129 0 -232 24.5t-184 77.5t-125 143.5t-45 214.5z" />
<glyph unicode="6" horiz-adv-x="1423" d="M121 465v506q0 98 33 180t90 138.5t133.5 96t162.5 58t179 18.5q98 0 181.5 -14t158 -46.5t127 -82t85 -124t36.5 -169.5h-299q-18 84 -99.5 124t-191.5 40q-117 0 -200.5 -60.5t-84.5 -158.5v-160q66 72 143.5 101.5t192.5 29.5q93 0 176 -18.5t154.5 -57.5t123.5 -95.5 t81.5 -135.5t29.5 -174q0 -101 -33.5 -183.5t-91 -138t-135.5 -93t-164 -54.5t-180 -17q-92 0 -178 17t-165 55t-137.5 94t-93 139t-34.5 185zM436 461q3 -95 83.5 -149t209.5 -54q124 0 205.5 55t81.5 148q0 99 -77.5 155t-207.5 56q-134 0 -216 -56t-79 -155z" />
<glyph unicode="7" horiz-adv-x="1146" d="M63 1143v291h1055l10 -158l-598 -1276h-358l535 1143h-644z" />
<glyph unicode="8" horiz-adv-x="1452" d="M94 453q1 47 23 100.5t75 108.5t127 81q-99 54 -144.5 147t-31.5 202q23 178 183 276t395 98q253 0 412 -99t182 -288q12 -104 -37.5 -190t-144.5 -129q62 -23 108 -62.5t69.5 -84.5t34 -84.5t11.5 -75.5q2 -101 -31 -183.5t-92 -138.5t-140.5 -94t-174.5 -54.5 t-197 -15.5q-101 1 -192 18t-172.5 54.5t-140 92.5t-91.5 137.5t-31 183.5zM430 436q-1 -31 12.5 -61t44 -60t92.5 -48.5t146 -18.5t145 18t92 48t44.5 60.5t11.5 61.5q-2 81 -79 129.5t-214 48.5q-130 0 -212 -48t-83 -130zM465 1032q5 -76 73 -127t187 -51t186 51t72 127 q3 67 -64.5 122.5t-197.5 55.5q-75 0 -129.5 -20t-80.5 -50t-37 -57.5t-9 -50.5z" />
<glyph unicode="9" horiz-adv-x="1433" d="M98 977q0 101 33.5 183.5t91 138t135.5 93t164 54t180 16.5q117 0 222 -28t193.5 -84.5t141 -153.5t52.5 -223v-506q0 -104 -35 -189t-94 -140.5t-139 -93t-166.5 -53.5t-180.5 -16q-98 0 -182.5 14t-160 46.5t-129.5 82.5t-87 124.5t-37 169.5h299q9 -43 38 -74.5 t71.5 -49.5t89.5 -26t100 -8q80 0 145 20t110 70t46 123v160q-66 -72 -143 -101.5t-192 -29.5q-93 0 -176 18.5t-154.5 57.5t-124 95.5t-82 135.5t-29.5 174zM416 977q0 -99 77 -155t207 -56q134 0 216 56t79 155q-3 95 -83.5 149t-209.5 54q-123 0 -204.5 -55t-81.5 -148z " />
<glyph unicode=":" horiz-adv-x="571" d="M121 150q0 45 18 80t47.5 53t64.5 26.5t70 0t64.5 -26.5t47.5 -53t18 -80q0 -44 -18 -79t-47.5 -53t-64.5 -26t-70 0t-64.5 26t-47.5 53t-18 79zM121 737q0 45 18 80t47.5 53t64.5 26.5t70 0t64.5 -26.5t47.5 -53t18 -80q0 -44 -18 -79t-47.5 -53t-64.5 -26t-70 0 t-64.5 26t-47.5 53t-18 79z" />
<glyph unicode=";" horiz-adv-x="587" d="M127 127q0 43 18 77.5t47.5 52.5t64.5 27t70 0.5t64.5 -26t47.5 -52t18 -79.5q0 -21 -2.5 -43t-9 -48.5t-11.5 -46t-16 -51.5t-16.5 -47t-19 -51t-17.5 -47h-158l37 203q-51 8 -84 44t-33 87zM133 737q0 45 18 80t47.5 53t64.5 26.5t70 0t64.5 -26.5t47.5 -53t18 -80 q0 -44 -18 -79t-47.5 -53t-64.5 -26t-70 0t-64.5 26t-47.5 53t-18 79z" />
<glyph unicode="&#x3c;" horiz-adv-x="856" d="M66 635v14l481 494l192 -203l-303 -299l301 -297l-190 -203z" />
<glyph unicode="=" horiz-adv-x="1167" d="M131 262v262h905v-262h-905zM131 743v265h905v-265h-905z" />
<glyph unicode="&#x3e;" horiz-adv-x="860" d="M119 956l192 187l484 -494v-14l-484 -494l-190 187l301 313z" />
<glyph unicode="?" horiz-adv-x="1224" d="M66 1001q1 219 149.5 342t388.5 123q219 0 363 -86t178 -252q13 -72 7.5 -123.5t-26 -95t-50 -73t-65.5 -58.5t-73 -51t-71.5 -50.5t-61.5 -57.5t-43.5 -71.5t-16.5 -92.5h-317q1 85 20 153t48.5 110.5t66.5 77t75 55t73 43t61 42.5t38.5 52t6.5 73q-9 61 -67.5 95 t-145.5 34q-91 0 -153 -52.5t-66 -136.5h-319zM401 168q0 51 21 91.5t54 61.5t73.5 30.5t80.5 0t73 -30.5t54 -61.5t21 -91.5t-21 -91t-54 -61t-73 -30.5t-80.5 0t-73.5 30.5t-54 61t-21 91z" />
<glyph unicode="@" horiz-adv-x="1900" d="M90 498q0 156 47.5 291.5t130 234t192 169t235 105.5t257.5 35q148 0 278.5 -32t240.5 -98t189.5 -162t124 -230.5t44.5 -296.5q0 -245 -106.5 -389.5t-286.5 -144.5q-32 0 -62.5 7.5t-62 24t-54.5 49.5t-30 78q-46 -63 -133 -104t-150 -41q-147 0 -266.5 63.5 t-188.5 179t-69 261.5q0 200 124.5 340.5t315.5 165.5q100 10 198.5 -23t153.5 -111l15 88l190 -30v-692q0 -30 16 -43t33 -13q74 5 116 88t42 240q0 316 -175 478.5t-497 162.5q-132 0 -251.5 -47.5t-209 -131t-142 -206.5t-52.5 -266q0 -161 53.5 -284.5t145.5 -196 t205 -108.5t243 -36q163 0 301 80l84 -166q-175 -104 -391 -104q-127 0 -247.5 30.5t-230 95.5t-191.5 159t-130.5 230.5t-48.5 299.5zM674 500q0 -112 68 -191.5t198 -79.5q127 0 195.5 79.5t68.5 201.5q0 115 -68.5 189.5t-197.5 74.5q-128 0 -196 -80.5t-68 -193.5z" />
<glyph unicode="A" d="M-8 0l643 1434h348l643 -1434h-346l-104 246h-736l-104 -246h-344zM561 528h494l-246 582z" />
<glyph unicode="B" horiz-adv-x="1488" d="M160 0v1434h706q104 0 193 -24t158 -71t108 -122.5t39 -172.5q0 -205 -190 -292q131 -48 191 -166q43 -85 43 -176q0 -36 -7 -74q-32 -169 -166.5 -252.5t-355.5 -83.5h-719zM473 279h393q105 0 158 43t53 120t-56 122.5t-159 45.5h-389v-331zM473 877h389 q92 0 139.5 35.5t47.5 99.5q0 65 -47.5 105t-135.5 40h-393v-280z" />
<glyph unicode="C" horiz-adv-x="1425" d="M78 707v8q0 109 28 213q28 108 90 206t150 171.5t216.5 117t281.5 43.5q302 0 526 -221l-201 -198q-121 118 -325 118q-94 0 -172 -28t-129 -73.5t-86 -105.5t-50 -124q-14 -60 -14 -121v-8q1 -66 15 -127t48 -120.5t84 -103t128.5 -70t175.5 -26.5q90 0 190 37.5 t162 99.5l199 -221q-214 -211 -551 -211q-160 0 -289 40t-216.5 109t-147 164.5t-86 203t-27.5 227.5z" />
<glyph unicode="D" horiz-adv-x="1542" d="M160 0v1434h588q144 0 263 -37.5t201.5 -103t139 -155.5t82.5 -193t26 -218t-25.5 -219.5t-81 -198t-137.5 -161.5t-202 -108t-266 -40h-588zM475 295h273q90 0 160.5 26t114 67.5t72 100t39.5 117.5t11 125q0 82 -20.5 152.5t-65 131t-124 95.5t-187.5 35h-273v-850z " />
<glyph unicode="E" horiz-adv-x="1343" d="M160 0v1434h1063v-293h-750v-277h707v-280h-707v-289h778v-295h-1091z" />
<glyph unicode="F" horiz-adv-x="1282" d="M160 0v1432h1044v-293h-725v-340h680v-285h-680v-514h-319z" />
<glyph unicode="G" horiz-adv-x="1519" d="M78 715q0 123 28.5 234t89.5 208t149.5 168t215.5 111.5t281 40.5q155 0 286 -51t248 -171l-198 -198q-64 61 -155 94t-181 33q-209 0 -330 -120t-121 -349q0 -65 14 -127t48 -123.5t84 -107.5t128.5 -74.5t176.5 -28.5q85 0 156.5 21t148.5 79v230h-342v266h618v-625 q-186 -266 -583 -266q-161 0 -291 43t-216.5 115.5t-145 170.5t-84 204.5t-25.5 222.5z" />
<glyph unicode="H" horiz-adv-x="1595" d="M160 -2v1434h319v-574h641v574h316v-1434h-316v567h-641v-567h-319z" />
<glyph unicode="I" horiz-adv-x="636" d="M160 0v1434h317v-1434h-317z" />
<glyph unicode="J" horiz-adv-x="1466" d="M37 596h309q7 -169 94 -246.5t232 -77.5q158 0 246 89.5t88 254.5v527h-398v291h717v-820q0 -141 -42.5 -259t-122.5 -204t-204 -134t-280 -48q-633 0 -639 627z" />
<glyph unicode="K" horiz-adv-x="1378" d="M160 0v1434h319v-592l477 592h387v-9l-581 -688l633 -719v-18h-385l-531 612v-612h-319z" />
<glyph unicode="L" horiz-adv-x="1228" d="M160 0v1434h319v-1141h717v-293h-1036z" />
<glyph unicode="M" horiz-adv-x="1886" d="M160 -2v1434h366l418 -551l420 551h362v-1434h-319v997l-442 -557h-58l-428 561v-1001h-319z" />
<glyph unicode="N" d="M160 0v1434h274l723 -932l-20 450v482h321v-1434h-274l-713 918l12 -472v-446h-323z" />
<glyph unicode="O" horiz-adv-x="1703" d="M78 717q0 346 213 548.5t561 202.5t561 -202.5t213 -548.5q0 -230 -97.5 -401t-272.5 -261t-404 -90t-404 90t-272.5 261t-97.5 401zM391 717q0 -202 129 -332.5t332 -130.5q207 0 334 130.5t127 332.5q0 200 -127.5 332.5t-333.5 132.5q-133 0 -239 -62t-164 -168 t-58 -235z" />
<glyph unicode="P" horiz-adv-x="1431" d="M160 0v1434h676q134 0 240 -41t172.5 -112.5t101 -163.5t34.5 -197q0 -109 -35 -201t-101.5 -162t-172 -110t-239.5 -41h-357v-406h-319zM479 698h357q110 0 169.5 61.5t59.5 153.5t-60 154.5t-169 62.5h-357v-432z" />
<glyph unicode="Q" horiz-adv-x="1703" d="M78 719q0 175 56.5 316.5t158.5 236.5t244.5 146.5t314.5 51.5q230 0 403 -88.5t270 -259t97 -403.5q0 -261 -125 -447l166 -168l-223 -221l-174 178q-180 -94 -414 -94q-230 0 -404 88.5t-272 259.5t-98 404zM391 719q0 -205 128.5 -333t332.5 -128q137 0 243.5 61.5 t162.5 166.5q51 97 51 212v21q0 203 -125 332t-332 129q-203 0 -332 -130t-129 -331z" />
<glyph unicode="R" horiz-adv-x="1484" d="M160 0v1434h680q126 0 228.5 -40t167 -107.5t99.5 -154t35 -182.5q-1 -76 -15 -136t-48.5 -120.5t-102 -109t-166.5 -84.5l394 -475v-25h-355l-366 471h-232v-471h-319zM479 741h365q102 0 156.5 62t54.5 139q-2 84 -56.5 150.5t-158.5 66.5h-361v-418z" />
<glyph unicode="S" horiz-adv-x="1339" d="M49 248l191 198q78 -100 199 -151t239 -51q128 0 207.5 47t79.5 125q1 86 -69 132t-220 58q-71 7 -128 16t-118 25.5t-107.5 38.5t-89 56t-69.5 76q-27 44 -43 102q-15 55 -15 121v8q1 104 48 188t126.5 137.5t180.5 82t213 28.5q175 0 302 -49t232 -172l-200 -177 q-57 59 -148.5 90t-183.5 31q-109 0 -182.5 -42.5t-73.5 -114.5q0 -38 15.5 -66.5t39.5 -46t66.5 -29.5t84 -18.5t103.5 -11.5q551 -49 551 -465q0 -115 -50.5 -205.5t-136.5 -144.5t-192 -82t-225 -29h-8q-124 0 -238 30q-118 31 -220 99.5t-161 165.5z" />
<glyph unicode="T" horiz-adv-x="1259" d="M35 1149v285h1190v-285h-437v-1149h-317v1149h-436z" />
<glyph unicode="U" horiz-adv-x="1585" d="M139 631v801h318v-801q0 -191 100 -289q92 -91 251 -91q13 0 26 1q294 19 294 379v801h318v-801q0 -314 -163.5 -485.5t-451.5 -180.5q-16 -1 -32 -1q-125 0 -235 36q-124 40 -219.5 119.5t-150.5 211t-55 300.5z" />
<glyph unicode="V" horiz-adv-x="1511" d="M-6 1434h358l404 -1059l403 1059h359l-596 -1440h-330z" />
<glyph unicode="W" horiz-adv-x="2197" d="M4 1434h358l179 -490l129 -463l321 953h209l336 -953l123 461l170 492h358l-520 -1432h-262l-307 801l-297 -801h-262z" />
<glyph unicode="X" horiz-adv-x="1411" d="M14 0v10l488 711l-482 698v15h351l336 -510l333 510h351v-15l-484 -698l492 -711v-10h-355l-337 504l-338 -504h-355z" />
<glyph unicode="Y" horiz-adv-x="1441" d="M8 1417v17h369l344 -570l362 570h367v-17l-573 -848v-569h-320v569z" />
<glyph unicode="Z" horiz-adv-x="1286" d="M63 0v166l701 993h-666v275h1096v-140l-688 -995h704v-299h-1147z" />
<glyph unicode="[" horiz-adv-x="743" d="M147 -365v1807h525v-252h-234v-1301h234v-254h-525z" />
<glyph unicode="\" horiz-adv-x="1046" d="M49 1573h293l657 -1741h-290z" />
<glyph unicode="]" horiz-adv-x="743" d="M72 -111h233v1301h-233v252h524v-1807h-524v254z" />
<glyph unicode="^" horiz-adv-x="1329" d="M76 672l2 12l491 756h170l510 -752l2 -16h-313l-287 430l-274 -430h-301z" />
<glyph unicode="_" horiz-adv-x="1026" d="M29 8h968v-256h-968v256z" />
<glyph unicode="`" horiz-adv-x="540" d="M-6 1417v13h344l151 -287v-15h-258z" />
<glyph unicode="a" horiz-adv-x="1308" d="M68 506q0 246 150 388q147 140 371 140h9q98 0 179 -36.5t120 -102.5l10 117h277v-1012h-266l-17 127q-47 -73 -136.5 -110.5t-174.5 -39.5h-6q-228 1 -371 141q-145 142 -145 388zM362 506q0 -122 76.5 -194t190.5 -72q119 0 193.5 77.5t74.5 178.5q0 116 -71 197 t-197 81q-114 0 -190.5 -73t-76.5 -195z" />
<glyph unicode="b" horiz-adv-x="1310" d="M125 0v1432h297v-543q116 143 317 143q226 0 365 -141.5t139 -384.5q0 -236 -138.5 -381t-361.5 -145q-106 0 -187.5 32t-147.5 117l-19 -129h-264zM426 506q0 -69 23.5 -121.5t63 -81.5t86 -43t99.5 -14q115 0 181.5 73.5t66.5 186.5q0 115 -67.5 187.5t-180.5 72.5 q-109 0 -190.5 -69.5t-81.5 -190.5z" />
<glyph unicode="c" horiz-adv-x="1040" d="M66 504q0 124 44.5 225.5t120 167.5t175 101.5t210.5 35.5q116 0 205 -31.5t162 -107.5l-164 -186q-77 59 -190 59q-114 0 -190.5 -71t-76.5 -193q0 -117 76.5 -185.5t184.5 -68.5q53 0 111 20.5t93 55.5l187 -193q-159 -156 -396 -156q-113 0 -211 31.5t-175 94 t-121.5 165.5t-44.5 236z" />
<glyph unicode="d" horiz-adv-x="1310" d="M68 506q0 243 138.5 384.5t364.5 141.5q202 0 318 -143v543h297v-1432h-264l-19 129q-65 -84 -147 -115.5t-189 -31.5q-223 0 -361 144t-138 380zM365 506q0 -113 66 -186.5t181 -73.5q53 0 99.5 14t86.5 43t63.5 81.5t23.5 121.5q0 121 -82 190.5t-191 69.5 q-113 0 -180 -72.5t-67 -187.5z" />
<glyph unicode="e" horiz-adv-x="1181" d="M68 516q0 233 145.5 377.5t390.5 144.5q130 0 233 -40.5t173 -117.5q69 -78 96 -198q15 -65 15 -139q0 -63 -11 -133h-743q11 -78 83 -128.5t191 -50.5q70 0 141 19t121 61l166 -184q-77 -75 -194 -112.5t-240 -37.5q-271 0 -419 145.5t-148 393.5zM367 625h479 q-4 79 -73.5 120t-168.5 41q-89 0 -152 -43t-85 -118z" />
<glyph unicode="f" horiz-adv-x="831" d="M47 745v248h178v60q0 105 36 186.5t96 128t130.5 69.5t147.5 23q81 0 145.5 -21t134.5 -65l-100 -207q-66 41 -145 41q-69 0 -109.5 -39t-40.5 -116v-60h281v-248h-281v-745h-295v745h-178z" />
<glyph unicode="g" horiz-adv-x="1241" d="M68 526q0 125 45 225t122 162.5t174 95.5t205 33q157 0 238 -55l111 143l213 -163l-129 -154q104 -125 104 -275v-16q-3 -113 -57 -206t-160 -148q46 -21 83 -47t60 -50.5t40 -54.5t24.5 -52t12 -49.5t5 -40.5t0.5 -32q0 -88 -30.5 -162t-82.5 -125.5t-122 -88 t-149.5 -53.5t-164.5 -17q-260 0 -396 122q-132 119 -132 333v10h274q13 -205 254 -205q105 0 177.5 48.5t72.5 137.5q0 80 -58.5 127t-187.5 47q-250 0 -398 138t-148 372zM352 526q0 -108 74 -174.5t188 -66.5q107 0 180.5 63t73.5 178q0 107 -72.5 180.5t-181.5 73.5 q-116 0 -189 -67t-73 -187z" />
<glyph unicode="h" horiz-adv-x="1243" d="M125 0v1434h297v-547q109 141 307 141q404 0 404 -485v-543h-295v541q0 104 -52 161.5t-141 57.5q-97 0 -161 -65.5t-64 -182.5v-512h-295z" />
<glyph unicode="i" horiz-adv-x="544" d="M104 1280q0 45 18.5 81t48 54.5t65.5 26.5q18 4 36 5l36 -5q36 -8 65.5 -26.5t48 -54.5t18.5 -81t-18.5 -81t-48 -54.5t-65.5 -26.5q-18 -4 -36 -5l-36 5q-36 8 -65.5 26.5t-48 54.5t-18.5 81zM125 0h295v1014h-295v-1014z" />
<glyph unicode="j" horiz-adv-x="542" d="M-162 -379q78 -45 160 -63q43 -9 85 -9q37 0 73 7q76 16 135.5 61t94.5 131q32 81 32 190v13v1063h-293v-1071q0 -140 -92 -140q-44 0 -111 33zM106 1280q0 53 24.5 91.5t62 56t80.5 17.5t80.5 -17.5t62 -56t24.5 -91.5q0 -45 -18.5 -81t-48 -54.5t-65.5 -26.5 q-17 -5 -35 -5l-35 5q-36 8 -65.5 26.5t-48 54.5t-18.5 81z" />
<glyph unicode="k" horiz-adv-x="1122" d="M125 0v1432h295v-818l299 396h348v-19l-371 -456l428 -512v-23h-354l-350 444v-444h-295z" />
<glyph unicode="l" horiz-adv-x="550" d="M129 0v1432h293v-1432h-293z" />
<glyph unicode="m" horiz-adv-x="1814" d="M125 0v1012h258l20 -115q43 75 115.5 106t151.5 31q211 0 295 -188q67 102 144.5 146t190.5 44q67 0 123.5 -13.5t109.5 -48t90 -88t59 -138.5t22 -195v-553h-297v547q0 103 -34.5 157t-119.5 54t-135.5 -62.5t-50.5 -152.5v-543h-291v543q0 104 -43 162.5t-131 58.5 q-84 0 -133 -66t-49 -157v-541h-295z" />
<glyph unicode="n" horiz-adv-x="1261" d="M125 0v1012h266l10 -129q118 153 320 153h8q422 0 422 -499v-537h-297v535q0 235 -209 235h-3q-98 0 -162 -72q-64 -74 -64 -176v-522h-291z" />
<glyph unicode="o" horiz-adv-x="1239" d="M66 504q0 232 151.5 381t400.5 149q250 0 403 -149t153 -381q0 -233 -151 -380t-405 -147q-168 0 -294 68t-192 187.5t-66 271.5zM365 504q0 -49 15 -95t44.5 -84.5t79.5 -61.5t114 -23q126 0 191 77t65 187q0 106 -66 186t-190 80q-63 0 -113 -23.5t-80 -62t-45 -85 t-15 -95.5z" />
<glyph unicode="p" horiz-adv-x="1310" d="M125 -446v1456h264l19 -129q66 84 147 115.5t188 31.5q223 0 361.5 -144t138.5 -380q0 -243 -139 -385t-365 -142q-88 0 -172.5 35t-144.5 109v-567h-297zM426 504q0 -121 81.5 -190.5t190.5 -69.5q113 0 180.5 72.5t67.5 187.5q0 113 -66.5 186.5t-181.5 73.5 q-53 0 -99.5 -14t-86 -43t-63 -81.5t-23.5 -121.5z" />
<glyph unicode="q" horiz-adv-x="1310" d="M68 504q0 236 138 380t361 144q107 0 189 -31.5t147 -115.5l19 129h264v-1456h-297v567q-60 -74 -145 -109t-173 -35q-226 0 -364.5 142t-138.5 385zM365 504q0 -115 67 -187.5t180 -72.5q109 0 191 69.5t82 190.5q0 69 -23.5 121.5t-63.5 81.5t-86.5 43t-99.5 14 q-115 0 -181 -73.5t-66 -186.5z" />
<glyph unicode="r" horiz-adv-x="929" d="M125 0v1010h274l23 -111q98 135 270 135q143 0 248 -92l-123 -233q-71 51 -162 51q-100 0 -167.5 -62t-67.5 -172v-526h-295z" />
<glyph unicode="s" horiz-adv-x="1017" d="M49 133l127 209q151 -123 352 -127h10q60 1 100 23q43 24 42 61q0 87 -172 92q-77 3 -147 21t-134.5 54t-103.5 100t-39 149q0 83 37 147t99.5 102t138.5 57t161 19q236 0 387 -131l-145 -184q-106 74 -240 74q-70 0 -107.5 -23t-37.5 -61q0 -85 149 -88q56 -2 102 -7.5 t99.5 -17.5t93.5 -35.5t74.5 -58t53 -87.5t18.5 -120v-6q0 -49 -14 -93q-15 -48 -49 -92t-84 -77t-126.5 -52.5t-169.5 -19.5q-128 0 -242 36.5t-233 135.5z" />
<glyph unicode="t" horiz-adv-x="858" d="M51 760v246h180v249l295 33v-282h256v-246h-258v-381q0 -73 33 -104t82 -31q73 0 123 24l67 -245q-103 -41 -213 -46q-15 -1 -29 -1q-69 0 -125 16q-68 19 -120.5 64t-81.5 126.5t-29 196.5v381h-180z" />
<glyph unicode="u" horiz-adv-x="1261" d="M111 475v537h297v-535q0 -235 208 -235h3q98 0 162 72q65 74 65 175v523h291v-1012h-267l-10 133q-114 -153 -320 -153h-8q-72 0 -131.5 13.5t-114.5 48t-92.5 89t-60 142t-22.5 202.5z" />
<glyph unicode="v" horiz-adv-x="1208" d="M8 1012h332l145 -371l119 -334l119 334l145 371h332l-434 -1018h-324z" />
<glyph unicode="w" horiz-adv-x="1730" d="M18 1012h330l141 -416l66 -229l195 645h231l195 -645l65 229l141 416h330l-375 -1018h-293l-180 506l-178 -506h-295z" />
<glyph unicode="x" horiz-adv-x="1110" d="M16 0v6l342 502l-323 491v11h352l168 -301l168 301h352v-11l-321 -491l340 -502v-6h-353l-186 303l-184 -303h-355z" />
<glyph unicode="y" horiz-adv-x="1173" d="M6 1012h332l252 -637l248 637h325l-620 -1467h-322l209 486z" />
<glyph unicode="z" horiz-adv-x="980" d="M55 0v125l445 631h-406v256h795v-144l-424 -596h444v-272h-854z" />
<glyph unicode="{" horiz-adv-x="763" d="M61 467v217q45 0 75 13.5t43 38t17.5 47t4.5 53.5v290q0 206 123.5 302t359.5 53v-224q-91 19 -130.5 -15t-39.5 -132v-274v-30v-45.5t-2.5 -41.5t-7.5 -37.5t-15.5 -33t-25.5 -29t-38 -25.5t-54 -21q35 -10 61 -23.5t41 -29.5t24.5 -35.5t12.5 -41t4 -46.5t0 -52v-30 v-266q0 -98 31.5 -124t138.5 -17v-232q-228 -43 -355.5 49t-127.5 285v305q0 31 -4.5 53.5t-17.5 47t-43 38t-75 13.5z" />
<glyph unicode="|" horiz-adv-x="577" d="M147 -152v1721h283v-1721h-283z" />
<glyph unicode="}" horiz-adv-x="763" d="M80 -98q107 -8 138.5 18.5t31.5 124.5v266q0 104 4 127q13 75 83 110q24 12 56 21q-23 7 -42 16t-33.5 16.5t-25 21t-18 21.5t-12.5 26.5t-7.5 26.5t-3.5 31t-1 31v35.5v36.5v275q0 95 -38.5 123.5t-131.5 15.5v232q236 43 359.5 -53t123.5 -302v-291q0 -24 2 -42 t10.5 -40t22.5 -36t40.5 -23.5t63.5 -9.5v-217q-45 0 -75 -13.5t-42.5 -38t-17 -47t-4.5 -53.5v-305q0 -193 -127.5 -285t-355.5 -49v230z" />
<glyph unicode="~" horiz-adv-x="1273" d="M113 535q31 125 115.5 204.5t211.5 83.5q53 1 107 -17t92 -42t87 -50t89 -36q81 -11 129 115l223 -64q-33 -142 -115.5 -219t-195.5 -80q-46 -1 -91.5 14t-83 37.5t-74.5 45t-79.5 37.5t-83.5 14q-81 -4 -127 -113z" />
<glyph unicode="&#xa1;" horiz-adv-x="575" d="M106 895q0 57 26.5 98.5t67 60.5t87 19t87 -19t67 -60.5t26.5 -98.5t-26.5 -99.5t-67 -61t-87 -18.5t-87 18.5t-67 61t-26.5 99.5zM129 -371h317q0 169 -3 500.5t-3 499.5h-303z" />
<glyph unicode="&#xa2;" horiz-adv-x="1124" d="M92 477q0 194 110 330.5t300 189.5v158h270v-156q149 -35 258 -141l-168 -182q-72 74 -211 74q-105 0 -185.5 -79t-80.5 -194q0 -117 80 -192.5t186 -75.5q58 0 118 24.5t99 71.5l183 -209q-55 -58 -121.5 -90.5t-157.5 -52.5v-156h-270v160q-188 52 -299 183t-111 337z " />
<glyph unicode="&#xa3;" horiz-adv-x="1353" d="M109 0v291q56 1 93.5 21t57.5 57.5t28 77.5t11 96h-190v256h141q-28 89 -31 166q-9 217 129.5 355t388.5 138q230 0 363 -117t129 -333h-277q-1 63 -32.5 103.5t-77 55.5t-105.5 15q-87 0 -147 -57t-60 -158q0 -63 25 -168h406v-256h-349q0 -30 -6 -66.5t-19 -78 t-39.5 -72t-62.5 -37.5h772v-289h-1148z" />
<glyph unicode="&#xa4;" horiz-adv-x="1271" d="M111 342l116 115q-37 102 -32.5 185.5t45.5 176.5l-129 121l223 223l119 -119q89 27 184 27q87 0 178 -31l123 123l221 -223l-119 -117q74 -189 4 -366l115 -115l-217 -217l-121 117q-77 -27 -188 -27q-91 0 -182 27l-117 -121zM432 641q0 -93 56 -149t145 -56 q94 0 146 55t52 150t-52 150t-146 55q-89 0 -145 -56t-56 -149z" />
<glyph unicode="&#xa5;" horiz-adv-x="1556" d="M59 1417v17h361l180 -291l168 -297l176 295l191 293h366v-17l-457 -651h189v-219h-309v-119h309v-219h-309v-209h-314v209h-307v219h307v119h-307v219h193z" />
<glyph unicode="&#xa6;" horiz-adv-x="598" d="M150 -188v759h299v-759h-299zM150 698v758h299v-758h-299z" />
<glyph unicode="&#xa7;" horiz-adv-x="1259" d="M100 166l154 184q88 -85 175.5 -118t193.5 -31q108 0 177.5 24t69.5 78q0 81 -239 78q-98 -2 -188 15t-167.5 52.5t-121.5 100.5t-39 151q3 60 41.5 116t113.5 83q-74 27 -107.5 90.5t-33.5 132.5q0 75 36.5 134t92 94t129.5 58t142 31.5t137 8.5q127 0 254.5 -40.5 t205.5 -129.5l-176 -145q-63 45 -132 64.5t-161 21.5q-49 1 -91.5 -4t-78.5 -16t-56.5 -30.5t-20.5 -46.5q0 -26 21.5 -45t58 -28t73.5 -13t78 -4q64 0 120.5 -5t119.5 -17t112 -36t88.5 -58t58.5 -86.5t13 -118.5q-6 -60 -47.5 -115t-106.5 -82q75 -33 113.5 -89.5 t38.5 -123.5q0 -68 -26.5 -123.5t-72 -91.5t-99.5 -61.5t-117.5 -39t-116.5 -19t-105 -5.5q-156 0 -291.5 52t-222.5 153zM393 713q0 -50 66 -77.5t162 -29.5q35 -1 74.5 3.5t81.5 15t69.5 33t27.5 53.5q0 52 -68 79t-165 29q-99 2 -173.5 -26t-74.5 -80z" />
<glyph unicode="&#xa8;" horiz-adv-x="1077" d="M121 1327q0 51 24 89t60 55t78.5 17t78.5 -17t60 -55t24 -89t-24 -88.5t-60 -54t-78.5 -16.5t-78.5 16.5t-60 54t-24 88.5zM653 1327q0 51 24 89t60.5 55t78.5 17t78.5 -17t60.5 -55t24 -89t-24 -88.5t-60.5 -54t-78.5 -16.5t-78.5 16.5t-60.5 54t-24 88.5z" />
<glyph unicode="&#xa9;" horiz-adv-x="1693" d="M90 729q0 156 54 292.5t151.5 237.5t242.5 159.5t318 58.5q175 0 317.5 -56.5t236 -157t144 -237t50.5 -297.5q0 -216 -86.5 -384t-257.5 -265.5t-404 -97.5q-173 0 -317.5 56.5t-242.5 155.5t-152 237t-54 298zM315 729q0 -247 148.5 -398t392.5 -151q245 0 384.5 148 t139.5 401q0 251 -139.5 399t-384.5 148q-243 0 -392 -153t-149 -394zM471 721q0 -120 57.5 -210t147 -133.5t196.5 -43.5q186 0 322 133l-139 139q-67 -67 -164 -67q-83 0 -143 47.5t-60 134.5q0 97 58.5 147t144.5 50q42 0 86 -17.5t74 -44.5l137 135q-132 129 -307 129 q-168 0 -284 -105.5t-126 -293.5z" />
<glyph unicode="&#xaa;" horiz-adv-x="903" d="M49 1104q0 170 96.5 259t251.5 89q64 0 118 -27t79 -71l14 80h207v-662h-213l-8 96q-27 -56 -84.5 -85t-120.5 -29q-152 0 -246 89t-94 261zM78 457v200h745v-200h-745zM274 1104q0 -71 41.5 -110.5t104.5 -39.5q39 0 69.5 16.5t46.5 43t23.5 58t0 63.5t-23.5 58.5 t-46.5 43t-69.5 16.5q-63 0 -104.5 -39.5t-41.5 -109.5z" />
<glyph unicode="&#xab;" horiz-adv-x="1153" d="M61 608l285 455h313v2l-284 -457q188 -312 284 -456h-313zM483 608l285 455h315v2l-284 -457l284 -456h-315z" />
<glyph unicode="&#xac;" horiz-adv-x="1112" d="M131 549v246h838v-500h-248v254h-590z" />
<glyph unicode="&#xad;" horiz-adv-x="1009" d="M121 471v256h768v-256h-768z" />
<glyph unicode="&#xae;" horiz-adv-x="1693" d="M90 729q0 156 54 292.5t151.5 237.5t242.5 159.5t318 58.5q175 0 317.5 -56.5t236 -157t144 -237t50.5 -297.5q0 -216 -86.5 -384t-257.5 -265.5t-404 -97.5q-173 0 -317.5 56.5t-242.5 155.5t-152 237t-54 298zM315 729q0 -247 148.5 -398t392.5 -151q245 0 384.5 148 t139.5 401q0 251 -139.5 399t-384.5 148q-243 0 -392 -153t-149 -394zM557 348h211v221h86l123 -221h227l-170 264q50 14 87 47.5t53 77t18.5 92t-17.5 95t-54 83.5t-92.5 60t-131.5 23h-340v-742zM764 741v166h141q29 0 49 -17t25 -41.5t0.5 -49t-24 -41.5t-48.5 -17h-143z " />
<glyph unicode="&#xaf;" horiz-adv-x="927" d="M102 1194v244h736v-244h-736z" />
<glyph unicode="&#xb0;" horiz-adv-x="747" d="M84 1132q-5 46 0.5 91.5t29 87t57.5 73.5t86.5 51t115.5 19q110 0 185.5 -57t93 -138t0 -162.5t-94 -138.5t-188.5 -57q-62 0 -114 19t-85.5 51t-57 73.5t-28.5 87.5zM247.5 1151q6.5 -25 20.5 -46.5t41 -34.5t62 -13q49 0 82.5 24.5t41 59.5t0 70.5t-40.5 60t-81 24.5 q-35 0 -62.5 -13t-41.5 -34.5t-21 -47t-0.5 -50.5z" />
<glyph unicode="&#xb1;" horiz-adv-x="1118" d="M125 23v258h868v-258h-868zM129 639v276h287v293h286v-293h287v-276h-287v-291h-286v291h-287z" />
<glyph unicode="&#xb2;" horiz-adv-x="770" d="M72 791v196q0 60 23 103.5t59.5 67.5t80.5 40t88.5 25.5t81 20t59.5 28.5t23 45q0 44 -49.5 62t-101.5 2.5t-60 -52.5h-200q1 75 45.5 131t112 82.5t145.5 26.5q141 0 229 -64.5t88 -187.5q0 -61 -23.5 -106t-61.5 -69.5t-84 -41t-92 -26t-84 -19.5t-61.5 -26.5 t-23.5 -41.5h424v-196h-618z" />
<glyph unicode="&#xb3;" horiz-adv-x="788" d="M61 1012h215q8 -58 109 -58q47 0 82 20t35 56q0 33 -30 52.5t-83 19.5h-119v153h111q59 0 87 19.5t28 52.5q0 31 -31 48.5t-84 19.5q-47 2 -82 -13t-41 -45h-182q0 59 28 105t73.5 73t98.5 40.5t109 13.5q77 0 146.5 -25.5t119 -82.5t49.5 -136q0 -104 -98 -147 q52 -17 85.5 -63.5t33.5 -102.5q0 -69 -31 -119t-83 -75t-106 -35.5t-114 -10.5q-57 0 -112.5 14t-104 41.5t-78.5 75.5t-31 109z" />
<glyph unicode="&#xb4;" horiz-adv-x="569" d="M31 1128v15l151 287h344v-13l-237 -289h-258z" />
<glyph unicode="&#xb5;" horiz-adv-x="1267" d="M143 -436v1448h297v-557q0 -103 62.5 -164.5t144.5 -59.5q54 0 102 25t81.5 82.5t33.5 138.5v535h299v-1012h-256l-30 104q-27 -70 -88 -109t-134 -42t-136 31.5t-93 101.5v-522h-283z" />
<glyph unicode="&#xb6;" horiz-adv-x="1753" d="M65.5 844q-2.5 85 14 169.5t66 160.5t116 134t165.5 92t214 34h1024v-304h-174v-1564h-322v1564h-299v-1564h-321v819q-113 9 -204.5 50t-147.5 104t-92.5 141.5t-39 163.5z" />
<glyph unicode="&#xb7;" horiz-adv-x="569" d="M106 608q0 49 19.5 87t51 57.5t69.5 29t76.5 0t70 -29t51 -57.5t19.5 -87q0 -48 -19.5 -85.5t-51 -57t-69.5 -28.5t-76.5 0t-70 28.5t-51 57t-19.5 85.5z" />
<glyph unicode="&#xb8;" horiz-adv-x="745" d="M104 -356l125 104q23 -28 74.5 -48t101 -13.5t60.5 49.5q9 37 -22.5 64.5t-75 28.5t-82.5 -24l-66 50l72 196h211l-35 -100q56 -3 98 -19.5t65.5 -41.5t38.5 -56.5t16 -64t-1 -64.5q-11 -79 -62 -130.5t-122.5 -66t-147.5 -6t-144 47t-104 94.5z" />
<glyph unicode="&#xb9;" horiz-adv-x="583" d="M72 793v178h127v352l-107 -23v173l311 81v-583h132v-178h-463z" />
<glyph unicode="&#xba;" horiz-adv-x="870" d="M61 1104q0 169 102.5 258.5t270.5 89.5q169 0 271 -89.5t102 -258.5q0 -173 -102.5 -264.5t-270.5 -91.5q-167 0 -270 92t-103 264zM72 446v203h729v-203h-729zM287 1104q0 -70 42.5 -110t104.5 -40q63 0 105.5 39.5t42.5 110.5q0 69 -42.5 109t-105.5 40 q-62 0 -104.5 -40t-42.5 -109z" />
<glyph unicode="&#xbb;" horiz-adv-x="1150" d="M72 158l284 454l-284 457v-2h313l285 -455l-285 -454h-313zM489 158l285 454l-285 457v-2h316l285 -455l-285 -454h-316z" />
<glyph unicode="&#xbc;" horiz-adv-x="1648" d="M92 676v180h127v350l-108 -22v172l313 82v-582h129v-180h-461zM276 -2l799 1452h250l-803 -1452h-246zM879 301l342 457h266v-455h92v-178h-92v-125h-197v125h-403zM1087 303h203v256z" />
<glyph unicode="&#xbd;" horiz-adv-x="1675" d="M84 674v180h127v352l-107 -24v174l312 82v-584h131v-180h-463zM270 -4l799 1454h250l-803 -1454h-246zM977 -10v196q0 60 23 103.5t59.5 67.5t81 40t89 25.5t81 20t59.5 28.5t23 45q0 44 -49.5 62t-101.5 2.5t-60 -52.5h-201q1 75 45.5 131t112 82.5t145.5 26.5 q142 0 230 -64.5t88 -187.5q0 -61 -24 -106t-62 -69.5t-84 -41t-91.5 -26t-83.5 -19.5t-62 -26.5t-24 -41.5h424v-196h-618z" />
<glyph unicode="&#xbe;" horiz-adv-x="1726" d="M74 928h205q38 -51 108 -51q45 0 77 16t32 41q0 39 -24 59.5t-85 20.5h-113v147h105q63 0 84 11t24 55q0 7 -3.5 15.5t-13 21t-33 20.5t-56.5 8q-52 0 -78 -10t-39 -43h-178q0 74 48 126t113.5 73.5t137.5 21.5q74 0 140.5 -24t114 -78.5t48.5 -130.5q0 -42 -24 -85 t-66 -55q49 -17 78 -59t29 -88q0 -64 -30.5 -113t-80 -76t-104 -40t-111.5 -13q-54 0 -105.5 13.5t-97 39.5t-73.5 72t-29 105zM360 -12l805 1462h250l-807 -1462h-248zM954 301l342 457h267v-455h92v-178h-92v-125h-197v125h-403zM1163 303h203v256z" />
<glyph unicode="&#xbf;" horiz-adv-x="1212" d="M66 49q-9 -61 6 -137q34 -166 178.5 -252t361.5 -86q240 0 389 122.5t152 342.5h-322q-4 -84 -66 -136.5t-153 -52.5q-86 0 -145 34.5t-68 95.5q-6 41 6.5 73t38.5 52t61 42.5t73 43t75 55t66.5 77t48.5 110.5t20 153h-317q0 -56 -20.5 -102.5t-53 -77t-73.5 -61.5 t-82.5 -56.5t-78.5 -61.5t-62.5 -76.5t-34.5 -101.5zM438 872q0 40 12.5 73.5t34.5 55t50 36.5t59.5 18.5t62.5 0t59.5 -18.5t50.5 -36.5t35 -55t13 -73.5q0 -51 -21 -91.5t-54 -61.5t-73.5 -30.5t-80.5 0t-73 30.5t-54 61.5t-21 91.5z" />
<glyph unicode="&#xc0;" d="M-8 0l643 1434h348l643 -1434h-346l-104 246h-736l-104 -246h-344zM453 1839v12h344l151 -286v-15h-258zM561 528h494l-246 582z" />
<glyph unicode="&#xc1;" d="M-8 0h344l104 246h736l104 -246h346l-643 1434h-348zM561 528l248 582l246 -582h-494zM655 1550v15l152 286h344v-12l-238 -289h-258z" />
<glyph unicode="&#xc2;" d="M-8 0h344l104 246h736l104 -246h346l-643 1434h-348zM424 1561v10l307 287h154l305 -287v-10h-287l-96 86l-94 -86h-289zM561 528l248 582l246 -582h-494z" />
<glyph unicode="&#xc3;" d="M-8 0l643 1434h348l643 -1434h-346l-104 246h-736l-104 -246h-344zM420 1647q109 234 297 184q24 -6 59 -22t59.5 -26.5t51.5 -15t47.5 11.5t34.5 54l182 -90q-56 -129 -125.5 -172t-159.5 -12q-24 8 -57 22.5t-53.5 23.5t-46.5 15t-44.5 1.5t-37 -23.5t-33.5 -54z M561 528h494l-246 582z" />
<glyph unicode="&#xc4;" d="M-8 0h344l104 246h736l104 -246h346l-643 1434h-348zM377 1712q0 44 18 79t46.5 53t63.5 26t69.5 0t63 -26t46.5 -53t18 -79t-18 -78.5t-46.5 -52t-63.5 -26t-69.5 0t-63 26t-46.5 52t-18 78.5zM561 528l248 582l246 -582h-494zM909 1712q0 44 18 79t46.5 53t63.5 26 t70 0t63.5 -26t46.5 -53t18 -79t-18 -78.5t-46.5 -52t-63.5 -26t-70 0t-63.5 26t-46.5 52t-18 78.5z" />
<glyph unicode="&#xc5;" d="M-8 0l641 1427q-115 73 -115 213q0 83 43.5 144.5t108.5 90t139 28.5q72 0 135.5 -28.5t106.5 -90t43 -144.5q0 -134 -111 -213l643 -1427h-348l-109 246h-718l-113 -246h-346zM580 543h460l-104 250l-127 350l-129 -359zM685.5 1643.5q0.5 -37.5 31.5 -68.5t86 -31 q57 0 87.5 31t29.5 68.5t-32.5 68.5t-84.5 31q-55 0 -86.5 -31t-31 -68.5z" />
<glyph unicode="&#xc6;" horiz-adv-x="1826" d="M-55 0l899 1434h862v-279h-518v-295h483v-270h-483v-307h551v-283h-838v223h-455l-129 -223h-372zM610 504h291l12 520z" />
<glyph unicode="&#xc7;" horiz-adv-x="1431" d="M82 707q-1 113 27.5 221t90.5 206t150 171.5t216.5 117t281.5 43.5q302 0 526 -221l-200 -198q-61 60 -147.5 89t-178.5 29q-94 0 -172 -28t-129 -73.5t-86 -106t-50 -124t-14 -128.5q1 -66 15 -127t48 -120.5t84 -103t128.5 -70t175.5 -26.5q90 0 190 37.5t162 99.5 l199 -221q-201 -198 -512 -211l-25 -72q56 -3 98 -19.5t65.5 -41t38.5 -56t16 -64t-1 -64.5q-9 -66 -47 -113.5t-91.5 -68.5t-118 -24t-125 13t-114 50t-83.5 81l125 105q23 -28 74.5 -48.5t100.5 -14t60 49.5q9 37 -22.5 65t-75 29t-82.5 -24l-66 49l66 180 q-154 24 -271 92.5t-187 168.5t-104.5 218t-35.5 253z" />
<glyph unicode="&#xc8;" horiz-adv-x="1343" d="M160 0v1434h1063v-293h-750v-277h707v-280h-707v-289h778v-295h-1091zM358 1862v12h344l152 -287v-14h-258z" />
<glyph unicode="&#xc9;" horiz-adv-x="1343" d="M160 0h1091v295h-778v289h707v280h-707v277h750v293h-1063v-1434zM543 1573v14l151 287h344v-12l-237 -289h-258z" />
<glyph unicode="&#xca;" horiz-adv-x="1343" d="M160 0h1091v295h-778v289h707v280h-707v277h750v293h-1063v-1434zM326 1573v10l307 287h153l306 -287v-10h-287l-96 86l-95 -86h-288z" />
<glyph unicode="&#xcb;" horiz-adv-x="1343" d="M160 0h1091v295h-778v289h707v280h-707v277h750v293h-1063v-1434zM283 1718q0 44 18 79t46.5 53t63.5 26t69.5 0t63 -26t46.5 -53t18 -79t-18 -78.5t-46.5 -52t-63.5 -26t-69.5 0t-63 26t-46.5 52t-18 78.5zM815 1718q0 44 18 79t46.5 53t63.5 26t70 0t63.5 -26t46.5 -53 t18 -79t-18 -78.5t-46.5 -52t-63.5 -26t-70 0t-63.5 26t-46.5 52t-18 78.5z" />
<glyph unicode="&#xcc;" horiz-adv-x="636" d="M-31 1849v13h344l152 -287v-14h-258zM160 0v1434h317v-1434h-317z" />
<glyph unicode="&#xcd;" horiz-adv-x="636" d="M160 0h317v1434h-317v-1434zM170 1552v15l152 286h344v-12l-238 -289h-258z" />
<glyph unicode="&#xce;" horiz-adv-x="636" d="M-63 1567v10l307 287h153l305 -287v-10h-286l-97 86l-94 -86h-288zM160 0h317v1434h-317v-1434z" />
<glyph unicode="&#xcf;" horiz-adv-x="636" d="M-109 1718q0 51 24 89t60.5 55t78.5 17t78.5 -17t60.5 -55t24 -89t-24 -88.5t-60.5 -54t-78.5 -16.5t-78.5 16.5t-60.5 54t-24 88.5zM160 0h317v1434h-317v-1434zM424 1718q0 44 18 79t46.5 53t63.5 26t70 0t63.5 -26t46.5 -53t18 -79t-18 -78.5t-46.5 -52t-63.5 -26 t-70 0t-63.5 26t-46.5 52t-18 78.5z" />
<glyph unicode="&#xd0;" horiz-adv-x="1550" d="M31 586v256h145v592h543q177 0 320.5 -53.5t237 -147.5t143.5 -220.5t50 -273.5q0 -155 -46 -287t-136.5 -234t-236 -160t-332.5 -58h-543v586h-145zM481 283h238q217 0 325.5 119.5t110.5 336.5q1 210 -110.5 315t-325.5 105h-238v-317h258v-256h-258v-303z" />
<glyph unicode="&#xd1;" d="M160 0v1434h274l723 -932l-20 450v482h321v-1434h-274l-713 918l12 -472v-446h-323zM395 1665q114 248 314 195q25 -6 62.5 -23.5t64 -28.5t55 -15.5t50 12.5t36.5 57l192 -97q-59 -136 -132.5 -181.5t-168.5 -12.5q-26 8 -60.5 23.5t-56.5 25.5t-49.5 16.5t-46.5 1.5 t-39 -25t-36 -57z" />
<glyph unicode="&#xd2;" horiz-adv-x="1703" d="M78 717q0 346 213 548.5t561 202.5t561 -202.5t213 -548.5q0 -230 -97.5 -401t-272.5 -261t-404 -90t-404 90t-272.5 261t-97.5 401zM391 717q0 -202 129 -332.5t332 -130.5q207 0 334 130.5t127 332.5q0 200 -127.5 332.5t-333.5 132.5q-133 0 -239 -62t-164 -168 t-58 -235zM487 1870v12h344l152 -287v-14h-258z" />
<glyph unicode="&#xd3;" horiz-adv-x="1703" d="M78 717q0 -230 97.5 -401t272.5 -261t404 -90t404 90t272.5 261t97.5 401q0 346 -213 548.5t-561 202.5t-561 -202.5t-213 -548.5zM391 717q0 129 58 235t164 168t239 62q206 0 333.5 -132.5t127.5 -332.5q0 -202 -127 -332.5t-334 -130.5q-203 0 -332 130.5t-129 332.5z M696 1587v15l152 286h344v-12l-238 -289h-258z" />
<glyph unicode="&#xd4;" horiz-adv-x="1703" d="M78 717q0 -230 97.5 -401t272.5 -261t404 -90t404 90t272.5 261t97.5 401q0 346 -213 548.5t-561 202.5t-561 -202.5t-213 -548.5zM391 717q0 129 58 235t164 168t239 62q206 0 333.5 -132.5t127.5 -332.5q0 -202 -127 -332.5t-334 -130.5q-203 0 -332 130.5t-129 332.5z M469 1587v10l307 287h154l305 -287v-10h-287l-96 86l-94 -86h-289z" />
<glyph unicode="&#xd5;" horiz-adv-x="1703" d="M78 717q0 346 213 548.5t561 202.5t561 -202.5t213 -548.5q0 -230 -97.5 -401t-272.5 -261t-404 -90t-404 90t-272.5 261t-97.5 401zM391 717q0 -202 129 -332.5t332 -130.5q207 0 334 130.5t127 332.5q0 200 -127.5 332.5t-333.5 132.5q-133 0 -239 -62t-164 -168 t-58 -235zM467 1686q55 114 129 167.5t182 26.5q25 -6 61.5 -23.5t62.5 -28.5t54 -15.5t49.5 12.5t36.5 57l191 -96q-59 -135 -131.5 -180.5t-165.5 -12.5q-28 9 -70.5 28.5t-67 28.5t-54.5 11t-53 -18t-42 -64z" />
<glyph unicode="&#xd6;" horiz-adv-x="1703" d="M78 717q0 -230 97.5 -401t272.5 -261t404 -90t404 90t272.5 261t97.5 401q0 346 -213 548.5t-561 202.5t-561 -202.5t-213 -548.5zM391 717q0 129 58 235t164 168t239 62q206 0 333.5 -132.5t127.5 -332.5q0 -202 -127 -332.5t-334 -130.5q-203 0 -332 130.5t-129 332.5z M428 1733q0 51 24 89t60.5 55t78.5 17t78.5 -17t60.5 -55t24 -89t-24 -88.5t-60.5 -54t-78.5 -16.5t-78.5 16.5t-60.5 54t-24 88.5zM961 1733q0 44 18 79t46.5 53t63.5 26t69.5 0t63 -26t46.5 -53t18 -79t-18 -78.5t-46.5 -52t-63 -26t-69.5 0t-63.5 26t-46.5 52t-18 78.5z " />
<glyph unicode="&#xd7;" horiz-adv-x="942" d="M102 467l183 178l-179 180l197 189l172 -183l182 183l183 -183l-191 -192l189 -186l-183 -174l-184 184l-178 -184z" />
<glyph unicode="&#xd8;" horiz-adv-x="1634" d="M78 702q0 114 28.5 223t89 207t146 171.5t209 117t268.5 43.5q126 0 258 -39l90 146h308l-168 -277q124 -107 189 -263t63 -324q-1 -113 -28.5 -219t-86.5 -201.5t-144 -166.5t-208.5 -113t-272.5 -42q-169 0 -297 49l-96 -157h-305l178 290q-110 105 -165.5 249.5 t-55.5 305.5zM391 698q7 -163 70 -278l461 747q-74 9 -103 9q-91 0 -165.5 -29.5t-123 -77.5t-81.5 -111t-46.5 -128.5t-11.5 -131.5zM678 270q72 -14 141 -14q92 0 165.5 26.5t120.5 69.5t78.5 102t45.5 119.5t16 126.5q4 200 -100 332z" />
<glyph unicode="&#xd9;" horiz-adv-x="1585" d="M139 631v801h318v-801q0 -190 100 -288.5t277 -90.5q294 19 294 379v801h318v-801q0 -314 -163.5 -485.5t-451.5 -180.5q-143 -5 -266.5 34.5t-219.5 119.5t-151 211.5t-55 300.5zM457 1851v13h344l151 -287v-14h-258z" />
<glyph unicode="&#xda;" horiz-adv-x="1585" d="M139 631q0 -169 55 -300.5t151 -211.5t219.5 -119.5t266.5 -34.5q288 9 451.5 180.5t163.5 485.5v801h-318v-801q0 -360 -294 -379q-177 -8 -277 90.5t-100 288.5v801h-318v-801zM621 1561v14l151 287h344v-13l-237 -288h-258z" />
<glyph unicode="&#xdb;" horiz-adv-x="1585" d="M139 631q0 -169 55 -300.5t151 -211.5t219.5 -119.5t266.5 -34.5q288 9 451.5 180.5t163.5 485.5v801h-318v-801q0 -360 -294 -379q-177 -8 -277 90.5t-100 288.5v801h-318v-801zM412 1573v10l307 287h153l306 -287v-10h-287l-96 86l-95 -86h-288z" />
<glyph unicode="&#xdc;" horiz-adv-x="1585" d="M139 631q0 -169 55 -300.5t151 -211.5t219.5 -119.5t266.5 -34.5q288 9 451.5 180.5t163.5 485.5v801h-318v-801q0 -360 -294 -379q-177 -8 -277 90.5t-100 288.5v801h-318v-801zM375 1718q0 44 18 79t46.5 53t63.5 26t69.5 0t63 -26t46.5 -53t18 -79t-18 -78.5 t-46.5 -52t-63.5 -26t-69.5 0t-63 26t-46.5 52t-18 78.5zM907 1718q0 44 18 79t46.5 53t63.5 26t70 0t63.5 -26t46.5 -53t18 -79t-18 -78.5t-46.5 -52t-63.5 -26t-70 0t-63.5 26t-46.5 52t-18 78.5z" />
<glyph unicode="&#xdd;" horiz-adv-x="1441" d="M8 1417l549 -848v-569h320v569l573 848v17h-367l-362 -570l-344 570h-369v-17zM549 1569v14l151 287h344v-12l-237 -289h-258z" />
<glyph unicode="&#xde;" horiz-adv-x="1404" d="M160 0l2 1432h315v-230h340q131 0 237 -41.5t171.5 -109.5t101 -154.5t35.5 -177.5t-35 -177.5t-100.5 -154.5t-172 -109.5t-237.5 -41.5h-338v-236h-319zM479 520h338q73 0 127 29t78 72.5t24 94t-24.5 94t-78 72.5t-126.5 29h-338v-391z" />
<glyph unicode="&#xdf;" horiz-adv-x="1294" d="M125 0v1051q0 108 55.5 194t144 131.5t195 68.5t213.5 4.5t195.5 -61t144 -127.5t55.5 -194q0 -56 -20 -106.5t-69 -93.5t-121 -60q149 -31 230 -130t81 -226q0 -102 -25 -182.5t-70.5 -135t-107.5 -90.5t-138 -50.5t-159.5 -13t-175.5 18.5q0 45 -1 122.5t-1 121.5 q67 -13 121.5 -13.5t92 8.5t66 27.5t44.5 39.5t26 47t13.5 48.5t3.5 46.5q0 60 -23 104.5t-62.5 69t-86.5 36.5t-101 12h-90v280h68q93 0 143.5 29.5t50.5 83.5q0 50 -38 83t-92.5 40t-109.5 -2.5t-94.5 -46t-42.5 -88.5v-1047h-315z" />
<glyph unicode="&#xe0;" horiz-adv-x="1308" d="M68 506q0 246 150 388.5t380 139.5q98 0 179 -36.5t120 -102.5l10 117h277v-1012h-266l-17 127q-47 -73 -136.5 -110.5t-174.5 -39.5q-232 -2 -377 140.5t-145 388.5zM305 1452v12h344l152 -286v-15h-258zM362 506q0 -122 76.5 -194t190.5 -72q119 0 193.5 77.5 t74.5 178.5q0 116 -71 197t-197 81q-114 0 -190.5 -73t-76.5 -195z" />
<glyph unicode="&#xe1;" horiz-adv-x="1308" d="M68 506q0 -246 145 -388.5t377 -140.5q85 2 174.5 39.5t136.5 110.5l17 -127h266v1012h-277l-10 -117q-39 66 -120 102.5t-179 36.5q-230 3 -380 -139.5t-150 -388.5zM362 506q0 122 76.5 195t190.5 73q126 0 197 -81t71 -197q0 -101 -74.5 -178.5t-193.5 -77.5 q-114 0 -190.5 72t-76.5 194zM475 1163v15l152 286h344v-12l-238 -289h-258z" />
<glyph unicode="&#xe2;" horiz-adv-x="1308" d="M68 506q0 -246 145 -388.5t377 -140.5q85 2 174.5 39.5t136.5 110.5l17 -127h266v1012h-277l-10 -117q-39 66 -120 102.5t-179 36.5q-230 3 -380 -139.5t-150 -388.5zM258 1165v11l307 286h154l305 -286v-11h-287l-96 86l-94 -86h-289zM362 506q0 122 76.5 195t190.5 73 q126 0 197 -81t71 -197q0 -101 -74.5 -178.5t-193.5 -77.5q-114 0 -190.5 72t-76.5 194z" />
<glyph unicode="&#xe3;" horiz-adv-x="1308" d="M68 506q0 246 150 388.5t380 139.5q98 0 179 -36.5t120 -102.5l10 117h277v-1012h-266l-17 127q-47 -73 -136.5 -110.5t-174.5 -39.5q-232 -2 -377 140.5t-145 388.5zM258 1288q56 114 129 166t178 21q25 -7 60 -24.5t60 -29t51.5 -17t48 10.5t36.5 55l183 -98 q-110 -254 -291 -184q-25 8 -58 23.5t-54 26t-47.5 17t-45.5 2t-39.5 -23.5t-36.5 -55zM362 506q0 -122 76.5 -194t190.5 -72q119 0 193.5 77.5t74.5 178.5q0 116 -71 197t-197 81q-114 0 -190.5 -73t-76.5 -195z" />
<glyph unicode="&#xe4;" horiz-adv-x="1308" d="M68 506q0 -246 145 -388.5t377 -140.5q85 2 174.5 39.5t136.5 110.5l17 -127h266v1012h-277l-10 -117q-39 66 -120 102.5t-179 36.5q-230 3 -380 -139.5t-150 -388.5zM223 1341q0 51 24 89t60.5 55t78.5 17t78.5 -17t60.5 -55t24 -89t-24 -88.5t-60.5 -54t-78.5 -16.5 t-78.5 16.5t-60.5 54t-24 88.5zM362 506q0 122 76.5 195t190.5 73q126 0 197 -81t71 -197q0 -101 -74.5 -178.5t-193.5 -77.5q-114 0 -190.5 72t-76.5 194zM756 1341q0 44 18 79t46.5 53t63.5 26t69.5 0t63 -26t46.5 -53t18 -79q0 -51 -24 -88.5t-60 -54t-78.5 -16.5 t-78.5 16.5t-60 54t-24 88.5z" />
<glyph unicode="&#xe5;" horiz-adv-x="1308" d="M68 506q0 246 150 388.5t380 139.5q98 0 179 -36.5t120 -102.5l10 117h277v-1012h-266l-17 127q-47 -73 -136.5 -110.5t-174.5 -39.5q-232 -2 -377 140.5t-145 388.5zM362 506q0 -122 76.5 -194t190.5 -72q119 0 193.5 77.5t74.5 178.5q0 116 -71 197t-197 81 q-114 0 -190.5 -73t-76.5 -195zM473 1358q0 63 25.5 111t68.5 75t93 40t106 13q53 0 100.5 -13.5t88 -40.5t64 -74.5t23.5 -110.5q0 -75 -42.5 -130t-103.5 -79.5t-130 -24.5q-43 0 -82.5 7t-78.5 24.5t-68 43.5t-46.5 67t-17.5 92zM645.5 1362q0.5 -36 31 -66t83.5 -30 q55 0 85 30t29 66t-32 66t-82 30q-54 0 -84.5 -30t-30 -66z" />
<glyph unicode="&#xe6;" horiz-adv-x="1972" d="M68 506q0 125 42.5 227t114.5 166.5t163.5 99.5t193.5 35q95 0 176 -35.5t131 -103.5l10 115h221v-103q59 70 149.5 101.5t182.5 31.5q106 0 199.5 -42t161 -122t94 -195t-1.5 -261h-750q22 -93 101.5 -144t179.5 -51q68 0 137 23t113 61l157 -188q-142 -154 -407 -154 q-95 0 -180.5 35.5t-135.5 106.5l-12 -109h-215l-2 127q-31 -72 -124 -110t-181 -40q-116 -1 -210 30.5t-163.5 94.5t-107 166t-37.5 238zM362 506q0 -127 75.5 -200t189.5 -73q65 0 118 23.5t86 61.5t50.5 87t17.5 99.5t-17.5 99.5t-50.5 87t-86 61.5t-118 23.5 q-115 0 -190 -72t-75 -198zM1161 637h471q-10 73 -65 111t-129 38q-102 0 -173 -39t-104 -110z" />
<glyph unicode="&#xe7;" horiz-adv-x="1042" d="M68 504q0 164 76.5 287t200 184t273.5 61q116 0 205 -31.5t162 -107.5l-164 -186q-77 59 -190 59q-114 0 -190 -72t-76 -194q0 -117 76 -186.5t184 -69.5q53 0 111 20.5t93 55.5l187 -193q-139 -136 -344 -154l-25 -57q59 -5 102.5 -22.5t65 -42.5t35.5 -54.5t13 -57.5 t-3 -52q-10 -78 -58 -130t-115.5 -69t-141 -11.5t-142 40.5t-110.5 90l121 119q22 -26 72.5 -45t99 -12.5t59.5 46.5q9 35 -20.5 62.5t-73.5 30.5t-90 -21l-58 39l64 162q-179 37 -289 167t-110 345z" />
<glyph unicode="&#xe8;" horiz-adv-x="1181" d="M68 516q0 233 145.5 377.5t390.5 144.5q130 0 233 -40.5t172.5 -117.5t96.5 -197.5t4 -272.5h-743q11 -78 83 -128.5t191 -50.5q70 0 141 19t121 61l166 -184q-77 -75 -194 -112.5t-240 -37.5q-271 0 -419 145.5t-148 393.5zM285 1456v12h344l151 -286v-15h-258zM367 625 h479q-4 79 -73.5 120t-168.5 41q-89 0 -152 -43t-85 -118z" />
<glyph unicode="&#xe9;" horiz-adv-x="1181" d="M68 516q0 233 145.5 377.5t390.5 144.5q130 0 233 -40.5t172.5 -117.5t96.5 -197.5t4 -272.5h-743q11 -78 83 -128.5t191 -50.5q70 0 141 19t121 61l166 -184q-77 -75 -194 -112.5t-240 -37.5q-271 0 -419 145.5t-148 393.5zM367 625h479q-4 79 -73.5 120t-168.5 41 q-89 0 -152 -43t-85 -118zM430 1157v14l152 287h344v-12l-238 -289h-258z" />
<glyph unicode="&#xea;" horiz-adv-x="1181" d="M68 516q0 233 145.5 377.5t390.5 144.5q130 0 233 -40.5t172.5 -117.5t96.5 -197.5t4 -272.5h-743q11 -78 83 -128.5t191 -50.5q70 0 141 19t121 61l166 -184q-77 -75 -194 -112.5t-240 -37.5q-271 0 -419 145.5t-148 393.5zM221 1176v10l307 287h154l305 -287v-10h-287 l-96 86l-94 -86h-289zM367 625h479q-4 79 -73.5 120t-168.5 41q-89 0 -152 -43t-85 -118z" />
<glyph unicode="&#xeb;" horiz-adv-x="1181" d="M68 516q0 233 145.5 377.5t390.5 144.5q130 0 233 -40.5t172.5 -117.5t96.5 -197.5t4 -272.5h-743q11 -78 83 -128.5t191 -50.5q70 0 141 19t121 61l166 -184q-77 -75 -194 -112.5t-240 -37.5q-271 0 -419 145.5t-148 393.5zM213 1315q0 73 49 114t108.5 41t108.5 -41 t49 -114q0 -42 -17.5 -74.5t-45 -49.5t-61 -25t-67.5 0t-61.5 25t-45 49.5t-17.5 74.5zM367 625h479q-4 79 -73.5 120t-168.5 41q-89 0 -152 -43t-85 -118zM690 1315q0 49 23.5 85t58.5 52t76 16t76 -16t58.5 -52t23.5 -85q0 -48 -23.5 -84t-58.5 -52t-76 -16t-76 16 t-58.5 52t-23.5 84z" />
<glyph unicode="&#xec;" horiz-adv-x="546" d="M4 1419v13h322l100 -289v-15h-254zM125 0v1012h297v-1012h-297z" />
<glyph unicode="&#xed;" horiz-adv-x="546" d="M123 1128v15l100 289h322v-13l-168 -291h-254zM125 0h297v1012h-297v-1012z" />
<glyph unicode="&#xee;" horiz-adv-x="546" d="M-66 1141v10l271 307h137l268 -307v-10h-252l-86 90l-82 -90h-256zM125 0h297v1012h-297v-1012z" />
<glyph unicode="&#xef;" horiz-adv-x="546" d="M-59 1296q0 41 17 73.5t43.5 49.5t59.5 25t65.5 0t59 -25t43.5 -49.5t17 -73.5t-17 -73.5t-43.5 -49.5t-59.5 -25t-65.5 0t-59 25t-43.5 49.5t-17 73.5zM125 0h297v1012h-297v-1012zM334 1296q0 41 17 73.5t43.5 49.5t59 25t65.5 0t59.5 -25t43.5 -49.5t17 -73.5 t-17 -73.5t-43.5 -49.5t-59.5 -25t-65.5 0t-59 25t-43.5 49.5t-17 73.5z" />
<glyph unicode="&#xf0;" horiz-adv-x="1187" d="M68 487q0 109 40 206.5t125.5 173.5t204.5 106q202 36 316 -45q-37 64 -98 116t-130.5 85.5t-137 54.5t-132.5 30l49 224q172 -23 313 -86l105 116l172 -137l-86 -96q161 -130 236.5 -320t66.5 -403q-11 -240 -146 -384t-374 -144q-126 0 -228 42.5t-165.5 113.5t-97 160 t-33.5 187zM362 489q0 -98 63 -171.5t167 -73.5q105 0 165 68t68 177q8 103 -58.5 172.5t-174.5 69.5q-104 0 -167 -72.5t-63 -169.5z" />
<glyph unicode="&#xf1;" horiz-adv-x="1261" d="M125 0v1012h266l10 -129q120 156 328 153q422 0 422 -499v-537h-297v535q0 235 -209 235q-100 1 -164.5 -72.5t-64.5 -175.5v-522h-291zM276 1288q105 227 287 180q23 -6 56.5 -22t57.5 -26t49.5 -14.5t45.5 11.5t33 53l176 -88q-55 -127 -121.5 -169t-152.5 -11 q-26 8 -65 26t-61.5 26t-50 10t-48.5 -16.5t-38 -59.5z" />
<glyph unicode="&#xf2;" horiz-adv-x="1239" d="M66 504q0 232 151.5 381t400.5 149q250 0 403 -149t153 -381q0 -233 -151 -380t-405 -147q-168 0 -294 68t-192 187.5t-66 271.5zM291 1442v12h344l151 -287v-14h-258zM365 504q0 -49 15 -95t44.5 -84.5t79.5 -61.5t114 -23q126 0 191 77t65 187q0 106 -66 186t-190 80 q-63 0 -113 -23.5t-80 -62t-45 -85t-15 -95.5z" />
<glyph unicode="&#xf3;" horiz-adv-x="1239" d="M66 504q0 -152 66 -271.5t192 -187.5t294 -68q254 0 405 147t151 380q0 232 -153 381t-403 149q-249 0 -400.5 -149t-151.5 -381zM365 504q0 49 15 95.5t45 85t80 62t113 23.5q124 0 190 -80t66 -186q0 -110 -65 -187t-191 -77q-64 0 -114 23t-79.5 61.5t-44.5 84.5 t-15 95zM477 1157v14l152 287h344v-12l-238 -289h-258z" />
<glyph unicode="&#xf4;" horiz-adv-x="1239" d="M66 504q0 -152 66 -271.5t192 -187.5t294 -68q254 0 405 147t151 380q0 232 -153 381t-403 149q-249 0 -400.5 -149t-151.5 -381zM233 1165v11l308 286h153l305 -286v-11h-286l-97 86l-94 -86h-289zM365 504q0 49 15 95.5t45 85t80 62t113 23.5q124 0 190 -80t66 -186 q0 -110 -65 -187t-191 -77q-64 0 -114 23t-79.5 61.5t-44.5 84.5t-15 95z" />
<glyph unicode="&#xf5;" horiz-adv-x="1239" d="M66 504q0 232 151.5 381t400.5 149q250 0 403 -149t153 -381q0 -233 -151 -380t-405 -147q-168 0 -294 68t-192 187.5t-66 271.5zM244 1280q109 234 297 184q24 -6 59 -22t59.5 -26.5t51.5 -15t47.5 11.5t34.5 54l182 -90q-56 -129 -125.5 -172t-159.5 -12 q-24 8 -56.5 22.5t-53.5 24t-47 15.5t-44.5 1.5t-37 -23.5t-33.5 -54zM365 504q0 -49 15 -95t44.5 -84.5t79.5 -61.5t114 -23q126 0 191 77t65 187q0 106 -66 186t-190 80q-63 0 -113 -23.5t-80 -62t-45 -85t-15 -95.5z" />
<glyph unicode="&#xf6;" horiz-adv-x="1239" d="M66 504q0 -152 66 -271.5t192 -187.5t294 -68q254 0 405 147t151 380q0 232 -153 381t-403 149q-249 0 -400.5 -149t-151.5 -381zM217 1311q0 51 24 89t60.5 55t78.5 17t78.5 -17t60.5 -55t24 -89t-24 -88.5t-60.5 -54t-78.5 -16.5t-78.5 16.5t-60.5 54t-24 88.5z M365 504q0 49 15 95.5t45 85t80 62t113 23.5q124 0 190 -80t66 -186q0 -110 -65 -187t-191 -77q-64 0 -114 23t-79.5 61.5t-44.5 84.5t-15 95zM705 1311q0 44 18 79t46.5 53t63.5 26t69.5 0t63 -26t46.5 -53t18 -79t-18 -78.5t-46.5 -52t-63.5 -26t-69.5 0t-63 26t-46.5 52 t-18 78.5z" />
<glyph unicode="&#xf7;" horiz-adv-x="1130" d="M94 518h942v264h-942v-264zM403 270q0 52 24 90t60 55t78 17t78 -17t60 -55t24 -90q0 -51 -24 -88.5t-60 -54t-78 -16.5t-78 16.5t-60 54t-24 88.5zM403 1038q0 52 24 90t60 55t78 17t78 -17t60 -55t24 -90q0 -51 -24 -88.5t-60 -54t-78 -16.5t-78 16.5t-60 54t-24 88.5z " />
<glyph unicode="&#xf8;" horiz-adv-x="1239" d="M66 504q0 114 39.5 212t110 168.5t174.5 111t228 40.5q90 0 173 -22l67 114h258l-127 -215q88 -73 136.5 -178.5t48.5 -230.5q0 -233 -151 -380t-405 -147q-90 0 -167 21l-64 -111h-258l121 207q-89 71 -136.5 176t-47.5 234zM365 504q0 -87 38 -150l244 414q-10 2 -29 2 q-63 0 -113 -23.5t-80 -62t-45 -85t-15 -95.5zM594 240h24q126 0 191 77t65 187q0 84 -38 147z" />
<glyph unicode="&#xf9;" horiz-adv-x="1261" d="M111 475v537h297v-535q0 -235 208 -235q100 -1 165 72.5t65 174.5v523h291v-1012h-267l-10 133q-116 -156 -328 -153q-72 0 -131.5 13.5t-114.5 48t-92.5 89t-60 142t-22.5 202.5zM289 1434v12h344l151 -287v-14h-258z" />
<glyph unicode="&#xfa;" horiz-adv-x="1261" d="M111 475q0 -115 22.5 -202.5t60 -142t92.5 -89t114.5 -48t131.5 -13.5q212 -3 328 153l10 -133h267v1012h-291v-523q0 -101 -65 -174.5t-165 -72.5q-208 0 -208 235v535h-297v-537zM463 1153v14l151 287h344v-12l-237 -289h-258z" />
<glyph unicode="&#xfb;" horiz-adv-x="1261" d="M111 475q0 -115 22.5 -202.5t60 -142t92.5 -89t114.5 -48t131.5 -13.5q212 -3 328 153l10 -133h267v1012h-291v-523q0 -101 -65 -174.5t-165 -72.5q-208 0 -208 235v535h-297v-537zM236 1161v10l307 287h153l305 -287v-10h-286l-97 86l-94 -86h-288z" />
<glyph unicode="&#xfc;" horiz-adv-x="1261" d="M111 475q0 -115 22.5 -202.5t60 -142t92.5 -89t114.5 -48t131.5 -13.5q212 -3 328 153l10 -133h267v1012h-291v-523q0 -101 -65 -174.5t-165 -72.5q-208 0 -208 235v535h-297v-537zM195 1317q0 42 18 75t47 50.5t63.5 25.5t69.5 0t64 -25.5t47 -50.5t18 -75t-18 -74.5 t-47 -49.5t-63.5 -25t-69.5 0t-64 25t-47 49.5t-18 74.5zM729 1317q0 42 18 75t46.5 50.5t63.5 25.5t70 0t63.5 -25.5t46.5 -50.5t18 -75t-18 -74.5t-46.5 -49.5t-63.5 -25t-70 0t-63.5 25t-46.5 49.5t-18 74.5z" />
<glyph unicode="&#xfd;" horiz-adv-x="1173" d="M6 1012l424 -981l-209 -486h322l620 1467h-325l-248 -637l-252 637h-332zM408 1149v14l151 287h344v-12l-237 -289h-258z" />
<glyph unicode="&#xfe;" horiz-adv-x="1308" d="M125 -422v1856h295v-531q43 63 131 97t166 34q234 2 378 -135.5t144 -394.5q0 -256 -140 -393.5t-370 -137.5q-81 0 -168.5 32t-140.5 104v-531h-295zM446 504q0 -99 74.5 -172.5t175.5 -73.5q106 0 178 67.5t72 178.5t-72 178.5t-178 67.5q-100 0 -175 -74t-75 -172z " />
<glyph unicode="&#xff;" horiz-adv-x="1173" d="M6 1012l424 -981l-209 -486h322l620 1467h-325l-248 -637l-252 637h-332zM168 1327q0 51 24 89t60.5 55t78.5 17t78.5 -17t60.5 -55t24 -89t-24 -88.5t-60.5 -54t-78.5 -16.5t-78.5 16.5t-60.5 54t-24 88.5zM700 1327q0 51 24 89t60.5 55t78.5 17t78.5 -17t60.5 -55 t24 -89t-24 -88.5t-60.5 -54t-78.5 -16.5t-78.5 16.5t-60.5 54t-24 88.5z" />
<glyph unicode="&#x152;" horiz-adv-x="2125" d="M80 723q0 165 46.5 300.5t137 235t231 154.5t320.5 55q27 0 55 -2t60.5 -6.5t49.5 -7t54.5 -9t42.5 -7.5h934v-285h-645v-281h606v-276h-606v-303h662v-287h-949q-125 -39 -264 -39q-183 0 -325 56.5t-231 158.5t-134 239t-45 304zM399 721q0 -76 16 -146t50.5 -133.5 t85 -110.5t125 -74.5t164.5 -27.5q138 0 239 56v866q-124 55 -250 55q-200 0 -314 -130.5t-116 -354.5z" />
<glyph unicode="&#x153;" horiz-adv-x="1957" d="M66 504q0 114 39.5 212t110 168.5t174.5 111t228 40.5q123 0 224 -49.5t162 -136.5q61 89 159.5 138.5t218.5 49.5q130 0 233 -41t172.5 -118.5t96.5 -198t4 -272.5h-749q11 -77 85.5 -128t194.5 -51q70 0 141 19t121 61l166 -184q-78 -76 -195 -114t-239 -38 q-133 0 -236 51.5t-169 141.5q-61 -88 -163 -138.5t-227 -50.5q-168 0 -294 68t-192 187.5t-66 271.5zM365 504q0 -47 15 -92t44.5 -84t79.5 -62.5t114 -23.5q126 0 194.5 78.5t68.5 183.5t-69 185.5t-194 80.5q-63 0 -113 -23.5t-80 -62t-45 -85t-15 -95.5zM1139 623h491 q-4 79 -73 121t-168 42q-90 0 -159 -44.5t-91 -118.5z" />
<glyph unicode="&#x178;" horiz-adv-x="1441" d="M8 1417l549 -848v-569h320v569l573 848v17h-367l-362 -570l-344 570h-369v-17zM307 1714q0 73 48.5 114t107 41t107 -41t48.5 -114q0 -42 -17 -74.5t-44.5 -49.5t-61 -25t-66.5 0t-60.5 25t-44.5 49.5t-17 74.5zM815 1714q0 49 23 85t57 52t74.5 16t74.5 -16t57 -52 t23 -85q0 -48 -23 -84t-57 -52t-74.5 -16t-74.5 16t-57 52t-23 84z" />
<glyph unicode="&#x2c6;" horiz-adv-x="923" d="M68 1176v10l307 287h153l306 -287v-10h-287l-96 86l-95 -86h-288z" />
<glyph unicode="&#x2dc;" horiz-adv-x="856" d="M53 1421q109 235 297 185q24 -6 59 -22t59.5 -26.5t51.5 -15t47.5 11.5t34.5 54l182 -90q-56 -130 -125 -173t-159 -12q-24 8 -57 22.5t-54 24t-47 15.5t-44 1.5t-37 -23.5t-34 -54z" />
<glyph unicode="&#x2000;" horiz-adv-x="951" />
<glyph unicode="&#x2001;" horiz-adv-x="1903" />
<glyph unicode="&#x2002;" horiz-adv-x="951" />
<glyph unicode="&#x2003;" horiz-adv-x="1903" />
<glyph unicode="&#x2004;" horiz-adv-x="634" />
<glyph unicode="&#x2005;" horiz-adv-x="475" />
<glyph unicode="&#x2006;" horiz-adv-x="317" />
<glyph unicode="&#x2007;" horiz-adv-x="317" />
<glyph unicode="&#x2008;" horiz-adv-x="237" />
<glyph unicode="&#x2009;" horiz-adv-x="380" />
<glyph unicode="&#x200a;" horiz-adv-x="105" />
<glyph unicode="&#x2010;" horiz-adv-x="1009" d="M121 471v256h768v-256h-768z" />
<glyph unicode="&#x2011;" horiz-adv-x="1009" d="M121 471v256h768v-256h-768z" />
<glyph unicode="&#x2012;" horiz-adv-x="1009" d="M121 471v256h768v-256h-768z" />
<glyph unicode="&#x2013;" horiz-adv-x="1222" d="M119 457v256h985v-256h-985z" />
<glyph unicode="&#x2014;" horiz-adv-x="1413" d="M119 463v256h1175v-256h-1175z" />
<glyph unicode="&#x2018;" horiz-adv-x="559" d="M80 936l174 500h227l-100 -500h-301z" />
<glyph unicode="&#x2019;" horiz-adv-x="546" d="M94 938l101 496h301l-172 -496h-230z" />
<glyph unicode="&#x201a;" horiz-adv-x="573" d="M53 -276l101 495h299l-172 -495h-228z" />
<glyph unicode="&#x201c;" horiz-adv-x="913" d="M82 936l170 496h229l-121 -496h-278zM459 936l147 496h230l-101 -496h-276z" />
<glyph unicode="&#x201d;" horiz-adv-x="903" d="M96 936l101 496h276l-147 -496h-230zM451 936l120 496h279l-170 -496h-229z" />
<glyph unicode="&#x201e;" horiz-adv-x="960" d="M53 -276l101 495h299l-172 -495h-228zM440 -276l101 495h299l-172 -495h-228z" />
<glyph unicode="&#x2022;" horiz-adv-x="858" d="M145 645q0 123 81 201t204 78q121 0 202 -78t81 -201t-80.5 -199.5t-202.5 -76.5q-123 0 -204 76.5t-81 199.5z" />
<glyph unicode="&#x2026;" horiz-adv-x="1513" d="M102 150q0 45 18.5 81t48 54.5t65.5 27t72 0t65.5 -27t48 -54.5t18.5 -81t-18.5 -81t-48 -54.5t-65.5 -27t-72 0t-65.5 27t-48 54.5t-18.5 81zM588 150q0 53 24.5 91.5t62 56t80.5 17.5t80.5 -17.5t62 -56t24.5 -91.5t-24.5 -91.5t-62 -56t-80.5 -17.5t-80.5 17.5t-62 56 t-24.5 91.5zM1077 150q0 45 18.5 81t48 54.5t65 27t71 0t65 -27t48 -54.5t18.5 -81t-18.5 -81t-48 -54.5t-65 -27t-71 0t-65 27t-48 54.5t-18.5 81z" />
<glyph unicode="&#x202f;" horiz-adv-x="380" />
<glyph unicode="&#x2039;" horiz-adv-x="729" d="M61 604l285 455h313v2l-284 -457q224 -367 284 -457h-313z" />
<glyph unicode="&#x203a;" horiz-adv-x="731" d="M72 160l282 454l-282 457v-2h313l285 -455l-285 -454h-313z" />
<glyph unicode="&#x205f;" horiz-adv-x="475" />
<glyph unicode="&#x20ac;" horiz-adv-x="1290" d="M92 432v223h121v52q0 40 2 63h-123v227h170q36 102 97 185.5t148 148t206 100t260 35.5q126 0 227 -34l-88 -269q-74 19 -139 19q-124 0 -219 -49t-154 -136h404l-50 -227h-434q-4 -46 -4 -70q0 -31 2 -45h400l-46 -223h-280q38 -53 93 -92t110 -57.5t99 -26.5t79 -8 q78 0 155 26l91 -276q-115 -31 -246 -31q-284 0 -468 121.5t-253 343.5h-160z" />
<glyph unicode="&#x2122;" horiz-adv-x="1691" d="M129 1243v189h604v-189h-194v-418h-217v418h-193zM807 823v609h213l156 -189l153 189h215v-609h-215v185l12 145q-20 -29 -45.5 -63.5t-56 -75t-45.5 -60.5h-39l-145 199l10 -145v-185h-213z" />
<glyph unicode="&#x25fc;" horiz-adv-x="1013" d="M0 0v1014h1014v-1014h-1014z" />
<glyph unicode="&#xfb01;" horiz-adv-x="1329" d="M47 737h182v-737h295v737h250v256h-250v60q0 78 39.5 118.5t98.5 40.5q40 0 88 -22l86 227q-100 47 -197 47q-77 0 -147.5 -24t-130.5 -71t-96 -129t-36 -187v-60h-182v-256zM891 1280q0 53 25 91.5t62 56t81 17.5t81 -17.5t62 -56t25 -91.5t-25 -91.5t-62 -56t-81 -17.5 t-81 17.5t-62 56t-25 91.5zM911 0h295v1014h-295v-1014z" />
<glyph unicode="&#xfb02;" horiz-adv-x="1335" d="M47 737v256h182v60q0 105 36 187t96 129t130.5 71t147.5 24q102 0 197 -45l-86 -227q-44 20 -88 20q-59 0 -98.5 -40.5t-39.5 -118.5v-60h236v-256h-236v-737h-295v737h-182zM911 0v1434h295v-1434h-295z" />
</font>
</defs>
</svg>
