<?xml version="1.0" standalone="no"?>
<!DOCTYPE svg PUBLIC "-//W3C//DTD SVG 1.1//EN" "http://www.w3.org/Graphics/SVG/1.1/DTD/svg11.dtd" >
<svg xmlns="http://www.w3.org/2000/svg" xmlns:xlink="http://www.w3.org/1999/xlink" version="1.1">
<metadata></metadata>
<defs>
<font id="nexa_xboldregular" horiz-adv-x="1306" >
<font-face units-per-em="2048" ascent="1536" descent="-512" />
<missing-glyph horiz-adv-x="495" />
<glyph horiz-adv-x="0" />
<glyph horiz-adv-x="682" />
<glyph unicode=" "  horiz-adv-x="495" />
<glyph unicode="&#x09;" horiz-adv-x="495" />
<glyph unicode="&#xa0;" horiz-adv-x="495" />
<glyph unicode="!" horiz-adv-x="589" d="M131 147q0 45 18 80t47 53t64 26.5t70 0t64 -26.5t47 -53t18 -80q0 -44 -18 -79t-47 -53t-64 -26t-70 0t-64 26t-47 53t-18 79zM160 375v1057h268v-1057h-268z" />
<glyph unicode="&#x22;" horiz-adv-x="868" d="M137 881v549h228v-549h-228zM502 881v549h229v-549h-229z" />
<glyph unicode="#" horiz-adv-x="1437" d="M76 276v240h217l94 375h-170v235h225l76 308h275l-76 -308h223l78 308h272l-76 -308h148v-237h-207l-96 -373h162v-240h-217l-68 -276h-274l67 276h-225l-68 -276h-272l67 276h-155zM543 502h258l102 405h-258z" />
<glyph unicode="$" horiz-adv-x="1429" d="M70 311l241 103q40 -96 158 -155.5t250 -59.5q72 0 133.5 12.5t112 38.5t79.5 70t29 102q0 49 -28.5 86t-81.5 60t-112.5 37.5t-137.5 23.5q-57 6 -97.5 12t-93 16t-90.5 21t-81 29t-73 40t-59.5 52.5t-47 67t-28 83.5t-10.5 103q0 97 40 174t109 126.5t150.5 79 t175.5 40.5v178h260v-178q70 -11 128 -29.5t115 -50t103.5 -82.5t79.5 -119l-221 -102q-40 66 -140 110.5t-206 44.5q-67 0 -123.5 -10t-103 -32t-73 -60t-26.5 -90q0 -33 12 -59t37 -44t52.5 -30.5t70.5 -22t77 -14.5t85 -11q60 -7 100.5 -13t97.5 -17t96 -23t86.5 -31.5 t79.5 -42t64.5 -55t51.5 -71t31 -88.5t12 -109q0 -100 -40 -183.5t-108 -139t-154.5 -88.5t-183.5 -40v-204h-260v194q-183 16 -326 102.5t-212 247.5z" />
<glyph unicode="%" horiz-adv-x="1589" d="M73 1138.5q0 60.5 21.5 118t61.5 103t105 73t145 27.5t145 -27.5t105 -73t61.5 -103t21.5 -118t-21.5 -118t-61.5 -103t-105 -73t-145 -27.5t-145 27.5t-105 73t-61.5 103t-21.5 118zM172 -2l944 1438h289l-942 -1438h-291zM279 1100.5q8 -39.5 42.5 -67t84.5 -27.5 t84.5 27.5t42.5 67t0 79t-42.5 67t-84.5 27.5t-84.5 -27.5t-42.5 -67t0 -79zM851 307.5q0 60.5 21.5 118t61.5 103t105 73t145 27.5t145 -27.5t105 -73t61.5 -103t21.5 -118t-21.5 -118t-61.5 -103t-105 -73t-145 -27.5t-145 27.5t-105 73t-61.5 103t-21.5 118zM1057 266.5 q8 -39.5 42.5 -67t84.5 -27.5t84.5 27.5t42.5 67t0 79t-42.5 67t-84.5 27.5t-84.5 -27.5t-42.5 -67t0 -79z" />
<glyph unicode="&#x26;" horiz-adv-x="1458" d="M106 436q0 93 62 179.5t160 119.5q-91 29 -142 114t-51 177q1 88 33.5 161.5t86 122t125 82.5t147.5 49t155 15t150.5 -12t141 -42t119.5 -75t81 -116t32 -160h-256q0 63 -39.5 103.5t-98.5 56.5t-136 16q-75 0 -132 -19t-88 -50t-45.5 -64.5t-13.5 -67.5q0 -51 29 -89.5 t74 -58.5t89 -29t85 -9h672v-213h-119v-209q0 -68 32 -112t97 -44v-268q-46 0 -82 7t-75 25t-68.5 57.5t-45.5 98.5q-122 -200 -409 -200q-98 0 -179.5 13t-155.5 45t-124.5 83t-80 130.5t-30.5 182.5zM373 434q0 -72 44.5 -121.5t109.5 -69.5t145 -20q40 0 88 11t97 32.5 t81.5 62t32.5 91.5v207h-312q-138 0 -212 -59.5t-74 -133.5z" />
<glyph unicode="'" horiz-adv-x="501" d="M137 883v549h228v-549h-228z" />
<glyph unicode="(" horiz-adv-x="724" d="M78 590q0 266 124.5 511t356.5 402l125 -168q-171 -136 -259.5 -329.5t-88.5 -415.5q0 -466 348 -740l-135 -182q-155 102 -263 255t-158 321.5t-50 345.5z" />
<glyph unicode=")" horiz-adv-x="724" d="M41 1343l125 168q232 -157 356.5 -402t124.5 -511q0 -177 -50 -345.5t-158 -321.5t-263 -255l-131 187q344 271 344 735q0 222 -88.5 415.5t-259.5 329.5z" />
<glyph unicode="*" horiz-adv-x="849" d="M92 1155l58 191l188 -72l-10 192h194l-20 -196l200 76l54 -191l-197 -39l143 -160l-153 -114l-123 178l-121 -178l-155 114l135 160z" />
<glyph unicode="+" horiz-adv-x="1050" d="M98 598v227h301v305h248v-305h305v-227h-305v-307h-248v307h-301z" />
<glyph unicode="," horiz-adv-x="516" d="M113 113q0 54 30 89.5t72.5 43t85 -2.5t72.5 -47t30 -90q0 -19 -10.5 -54t-81.5 -253h-141l39 203q-44 8 -70 36.5t-26 74.5z" />
<glyph unicode="-" horiz-adv-x="1009" d="M127 477v230h756v-230h-756z" />
<glyph unicode="." horiz-adv-x="516" d="M111 129q0 40 16.5 71.5t42.5 48t57 24t62.5 0t57.5 -24t42.5 -48t16.5 -71.5t-16.5 -71.5t-42.5 -48t-57 -24t-62.5 0t-57.5 24t-42.5 48t-16.5 71.5z" />
<glyph unicode="/" horiz-adv-x="1042" d="M51 -168l682 1737h262l-684 -1737h-260z" />
<glyph unicode="0" horiz-adv-x="1454" d="M111 606v221q0 155 53 280t139.5 202t197.5 118.5t226 41.5t226 -42t197.5 -118.5t139.5 -202t53 -279.5v-221q0 -154 -53 -279.5t-139.5 -202t-197.5 -118.5t-226 -42t-226 41.5t-197.5 118.5t-139.5 202t-53 280zM379 606q0 -94 30 -170t79 -123t111.5 -72t127.5 -25 t127.5 25t111.5 72t79 123t30 170v221q0 93 -30 168t-79 121.5t-111.5 71.5t-127.5 25.5t-127.5 -24.5t-111.5 -71t-79 -121.5t-30 -169.5v-221z" />
<glyph unicode="1" horiz-adv-x="919" d="M109 0v229h249v861l-237 -70v246l506 168v-1205h237v-229h-755z" />
<glyph unicode="2" horiz-adv-x="1388" d="M113 0v377q0 96 33.5 171t89 122.5t132 78.5t157 43.5t169.5 12.5q48 0 95 8.5t98 28.5t82.5 61.5t31.5 100.5q0 111 -76 160.5t-212 54.5q-84 0 -154 -19.5t-119.5 -66.5t-52.5 -115h-268q8 98 46.5 174.5t95 124.5t133 79t154.5 43.5t165 12.5q84 0 161 -13.5 t150.5 -46t127 -81.5t86 -126.5t32.5 -174.5q0 -106 -31.5 -186.5t-83.5 -129.5t-128.5 -79.5t-156 -42t-176.5 -11.5q-52 0 -100 -7.5t-99 -26.5t-81.5 -58t-30.5 -94v-123h891v-252h-1161z" />
<glyph unicode="3" horiz-adv-x="1390" d="M96 420h273q0 -52 32 -92.5t82 -62.5t101.5 -33t99.5 -11q55 0 108.5 12t102.5 35.5t79 66t30 97.5q0 193 -306 193h-223v221h207q58 0 108.5 8.5t95 27t70.5 53.5t27 83q0 33 -14.5 64.5t-46.5 61t-92 47t-142 17.5q-51 0 -101 -9.5t-95.5 -29t-74 -55t-28.5 -82.5h-270 q0 89 34.5 162t90.5 120.5t131 79.5t154 46t161 14q105 0 202 -26t179 -77t131.5 -137t50.5 -196q0 -100 -53 -177t-145 -106q104 -34 168.5 -116t64.5 -185q0 -101 -37 -181t-96.5 -130.5t-140.5 -83.5t-162.5 -46t-169.5 -13q-85 0 -165.5 14t-157.5 47.5t-134.5 82.5 t-92.5 125.5t-36 170.5z" />
<glyph unicode="4" horiz-adv-x="1368" d="M53 547l645 885h412v-897h168v-263h-168v-272h-266v272h-766zM358 535h486v663z" />
<glyph unicode="5" horiz-adv-x="1343" d="M106 432h269q0 -56 29.5 -97t78.5 -62t100 -30.5t107 -9.5q52 0 102 13t95 39t72.5 72.5t27.5 107.5q1 58 -25.5 100.5t-72.5 65t-98 33t-111 10.5h-543v758h1039v-254h-775v-252h279q94 0 177 -15.5t157.5 -50.5t127 -87.5t83.5 -131t30 -176.5q0 -95 -30.5 -175 t-83.5 -135.5t-124.5 -94.5t-153 -57.5t-169.5 -18.5q-98 0 -182 14t-160 47t-129.5 83.5t-84.5 128t-32 175.5z" />
<glyph unicode="6" horiz-adv-x="1421" d="M129 457v534q0 93 33 171t89.5 132t132.5 92t160.5 56t174.5 18q120 0 223.5 -24.5t186.5 -74t130.5 -133t47.5 -192.5h-271q0 61 -47 105.5t-116.5 65t-149.5 20.5q-130 2 -228 -64.5t-98 -177.5v8v-215q45 69 142.5 110.5t189.5 41.5q75 0 144.5 -11t137 -33.5t123 -61 t98 -89.5t66 -123t23.5 -159q0 -114 -52 -207t-137.5 -150.5t-189.5 -88t-215 -30.5q-113 0 -217.5 30.5t-190.5 88t-138 151.5t-52 210zM397 453q1 -76 47.5 -130t119 -79t163.5 -25q137 0 231.5 61t94.5 173q0 114 -91.5 177.5t-232.5 63.5q-143 0 -238 -63t-94 -178z" />
<glyph unicode="7" horiz-adv-x="1150" d="M66 1176v258h1052l15 -144l-644 -1290h-311l586 1176h-698z" />
<glyph unicode="8" horiz-adv-x="1441" d="M102 432q2 91 59 178t161 129q-90 48 -135.5 122.5t-45.5 160.5q0 105 46.5 189.5t126.5 137.5t183.5 81t221.5 28q117 0 222.5 -28.5t187.5 -81.5t130 -137.5t48 -188.5q0 -81 -47 -157t-138 -113q70 -28 120.5 -84.5t73 -116.5t23.5 -119q2 -97 -31.5 -176.5 t-92 -132.5t-139 -89t-170 -52t-187.5 -15q-96 1 -184 16.5t-169 51.5t-139.5 88.5t-92.5 131.5t-32 177zM385 428q-2 -88 88.5 -151.5t247.5 -63.5t247.5 63t88.5 152q-1 68 -48 115.5t-121 68.5t-167 21q-88 0 -161.5 -21t-123.5 -69t-51 -115zM418 1030q3 -91 91.5 -146 t211.5 -55q128 0 214 54.5t89 146.5q3 90 -82.5 146.5t-222.5 56.5q-143 0 -223.5 -61.5t-77.5 -141.5z" />
<glyph unicode="9" horiz-adv-x="1423" d="M102 985q0 92 34 170.5t92 134t134 94.5t161 57.5t173 18.5q113 0 217.5 -30.5t190.5 -87.5t138 -151t52 -210v-535q0 -93 -33 -171t-89.5 -132t-132 -92t-160 -56t-174.5 -18q-96 0 -182 15t-162 48t-131.5 81.5t-88 120t-32.5 159.5h270q0 -60 49 -104.5t120.5 -65 t151.5 -20.5q130 -2 228 64.5t98 177.5v-9v215q-45 -69 -142.5 -110t-189.5 -41q-75 0 -144.5 11t-137 33.5t-123 61t-98 89.5t-66 123t-23.5 159zM371 985q0 -114 91 -178t232 -64q143 0 238 63.5t94 178.5q-1 76 -47.5 130t-119 79t-163.5 25q-137 0 -231 -61t-94 -173z " />
<glyph unicode=":" horiz-adv-x="544" d="M127 129q0 55 30 92.5t72.5 46.5t85.5 0t73 -46.5t30 -92.5q0 -39 -16 -69.5t-41.5 -46.5t-56.5 -23.5t-62.5 0t-57 23.5t-41.5 46.5t-16 69.5zM127 723q0 55 30 92.5t72.5 46.5t85.5 0t73 -46.5t30 -92.5q0 -39 -16 -69.5t-41.5 -46.5t-56.5 -23.5t-62.5 0t-57 23.5 t-41.5 46.5t-16 69.5z" />
<glyph unicode=";" horiz-adv-x="555" d="M131 113q0 54 30 89.5t72.5 43t85.5 -2.5t73 -47t30 -90q0 -19 -10.5 -54t-81.5 -253h-142l39 203q-44 8 -70 36.5t-26 74.5zM135 723q0 55 30 92.5t72.5 46.5t85.5 0t73 -46.5t30 -92.5q0 -39 -16 -69.5t-41.5 -46.5t-56.5 -23.5t-62.5 0t-57 23.5t-41.5 46.5t-16 69.5z " />
<glyph unicode="&#x3c;" horiz-adv-x="813" d="M70 629v30l471 467l161 -172l-323 -311l323 -309l-161 -172z" />
<glyph unicode="=" horiz-adv-x="1159" d="M137 293v225h885v-225h-885zM137 756v227h885v-227h-885z" />
<glyph unicode="&#x3e;" horiz-adv-x="815" d="M113 322l323 321l-323 324l161 159l471 -467v-30l-471 -467z" />
<glyph unicode="?" horiz-adv-x="1236" d="M68 1004q1 110 45 195.5t120.5 137.5t173 78.5t207.5 26.5q89 0 169 -15t151 -49t122 -83t80 -122.5t27 -162.5q0 -71 -21 -128t-53 -92t-77.5 -65.5t-85 -47.5t-85 -38t-69.5 -37q-78 -52 -78 -190l-270 2q1 81 15 144.5t32.5 101.5t53 70.5t58 47.5t66.5 37 q24 13 65 30t65.5 29t51.5 31t39.5 45.5t12.5 61.5q0 46 -16.5 81t-42.5 56t-63 34t-73.5 18t-77.5 5q-67 0 -127 -23t-100 -70t-41 -109h-274zM393 154q0 52 24.5 90t60.5 55t79 17t79 -17t60.5 -55t24.5 -90q0 -51 -24.5 -89t-60.5 -55t-79 -17t-79 17t-60.5 55t-24.5 89z " />
<glyph unicode="@" horiz-adv-x="1894" d="M92 498q0 157 47 292t128.5 232t190.5 165.5t234.5 102t259.5 33.5q149 0 278 -30t238 -94.5t186.5 -158.5t121 -228t43.5 -298q0 -247 -98.5 -390.5t-276.5 -143.5q-34 0 -67 8.5t-66 28.5t-53.5 60t-20.5 95q-16 -44 -52 -80t-79.5 -56.5t-86 -31t-77.5 -10.5 q-224 0 -374 142t-150 362q0 200 124.5 340.5t317.5 165.5q108 10 211 -27.5t152 -126.5l16 104l176 -26v-731q0 -23 21.5 -34.5t38.5 -6.5q46 15 77.5 48.5t48 83t23 102t6.5 118.5q0 326 -172.5 486.5t-505.5 160.5q-185 0 -336.5 -78.5t-242 -229.5t-90.5 -349 q0 -135 35.5 -243t96.5 -179.5t146 -119.5t179.5 -68.5t201.5 -20.5q174 0 303 78l78 -152q-170 -100 -387 -100q-129 0 -248.5 29t-229 92.5t-190 155.5t-128.5 228t-48 300zM657 500q0 -119 72.5 -203t208.5 -84q134 0 207.5 84.5t73.5 212.5q0 122 -73.5 201.5 t-209.5 79.5q-91 0 -156 -43.5t-94 -107.5t-29 -140z" />
<glyph unicode="A" horiz-adv-x="1593" d="M6 0l643 1434h295l643 -1434h-295l-121 270h-749l-123 -270h-293zM530 522h533l-266 611z" />
<glyph unicode="B" horiz-adv-x="1478" d="M170 0v1434h680q108 0 196.5 -25t155.5 -74.5t104 -130t37 -186.5q0 -89 -45.5 -162t-140.5 -115q59 -18 106 -58t72 -87.5t38 -92t13 -81.5q0 -93 -27.5 -166t-75 -120.5t-116.5 -78.5t-147 -44t-170 -13h-680zM436 252h414q46 0 89.5 8.5t85.5 26.5t67.5 53.5 t25.5 83.5q0 61 -44.5 107.5t-104.5 68t-119 21.5h-414v-369zM436 858h414q119 0 172 43t53 111q0 27 -11.5 55.5t-36 56.5t-70.5 46t-107 18h-414v-330z" />
<glyph unicode="C" horiz-adv-x="1433" d="M88 707v8q0 111 28 215q29 108 90.5 205t149.5 169.5t214.5 115t277.5 42.5q304 0 526 -219l-180 -174q-69 67 -159 101t-187 34q-100 0 -184 -28.5t-140.5 -77t-95.5 -113t-57 -134.5q-17 -66 -17 -136v-8q1 -93 29 -177t85 -154.5t155 -112.5t225 -42q96 0 193.5 38.5 t166.5 107.5l185 -187q-216 -213 -545 -213q-155 0 -282.5 41.5t-214.5 111.5t-147 165.5t-87.5 201t-28.5 220.5z" />
<glyph unicode="D" horiz-adv-x="1538" d="M170 0v1434h563q143 0 262.5 -39.5t201.5 -106.5t139.5 -158t84.5 -191.5t29 -209.5v-16q0 -102 -24 -199q-26 -104 -82.5 -198t-139 -164t-204 -111t-267.5 -41h-563zM438 260h295q118 0 208 40.5t142 108.5q53 67 77 149q23 75 22 159v14q-2 87 -29.5 164.5t-80 142 t-140 102.5t-199.5 38h-295v-918z" />
<glyph unicode="E" horiz-adv-x="1361" d="M170 0v1434h1073v-263h-805v-329h776v-252h-776v-324h805v-266h-1073z" />
<glyph unicode="F" horiz-adv-x="1284" d="M170 0v1432h1030v-261h-760v-391h719v-250h-719v-530h-270z" />
<glyph unicode="G" horiz-adv-x="1521" d="M86 698q0 154 48.5 292t140 247t238.5 173.5t331 64.5q147 0 285 -56.5t247 -163.5l-168 -172q-71 68 -169.5 106t-194.5 38q-150 0 -263.5 -71t-172 -190.5t-58.5 -267.5q0 -73 17 -140.5t55 -130t94 -108t140.5 -73t187.5 -27.5q90 0 166 25.5t157 89.5v254h-366v241 h614v-604q-110 -127 -249 -192.5t-322 -65.5q-157 0 -285.5 40t-215 108.5t-145.5 162.5t-85.5 199t-26.5 221z" />
<glyph unicode="H" horiz-adv-x="1583" d="M170 -2v1434h270v-605h705v605h268v-1434h-268v580h-705v-580h-270z" />
<glyph unicode="I" horiz-adv-x="608" d="M170 0v1434h268v-1434h-268z" />
<glyph unicode="J" horiz-adv-x="1454" d="M43 596h266q0 -371 363 -371q177 0 268.5 107.5t91.5 279.5v570h-432v252h703v-822q0 -186 -74.5 -330.5t-219 -227.5t-337.5 -83q-138 0 -253 41t-199 118.5t-130.5 197t-46.5 268.5z" />
<glyph unicode="K" horiz-adv-x="1363" d="M170 0v1434h270v-607l545 607h336v-9l-637 -686l690 -723v-16h-334l-600 635v-635h-270z" />
<glyph unicode="L" horiz-adv-x="1212" d="M170 0v1434h270v-1184h738v-250h-1008z" />
<glyph unicode="M" horiz-adv-x="1857" d="M170 -2v1434h311l449 -617l448 617h310v-1434h-271v1040l-467 -622h-53l-457 624v-1042h-270z" />
<glyph unicode="N" horiz-adv-x="1591" d="M170 0v1434h219l762 -965v965h270v-1434h-219l-762 954v-954h-270z" />
<glyph unicode="O" horiz-adv-x="1642" d="M86 707q0 166 58 308.5t157.5 239.5t236 152t291.5 55q142 -1 263.5 -44t206.5 -115.5t145 -168.5t88 -204q27 -104 27 -213v-8q-1 -114 -29 -220t-87 -201.5t-143.5 -166.5t-207 -112.5t-269.5 -41.5t-269.5 41t-208 111t-145 164.5t-87 201.5t-27.5 222zM352 702 q2 -74 18.5 -141.5t53 -131.5t89 -111t132.5 -75t178 -28t178 28.5t132.5 76t88.5 111.5t52.5 132t17.5 142v9q0 69 -14 136q-16 71 -52.5 137t-89.5 116.5t-132 81t-175 32.5q-148 0 -259.5 -69.5t-166.5 -185.5q-51 -109 -51 -241v-19z" />
<glyph unicode="P" horiz-adv-x="1425" d="M170 0v1434q112 0 338 1t338 1q145 0 259 -55.5t173 -144.5q58 -89 86 -197q14 -54 14 -108t-14 -108q-28 -108 -86 -197.5t-172 -146t-260 -57.5h-406v-422h-270zM440 670h406q63 0 113.5 22t81.5 57.5t47.5 81t16.5 93.5t-17 93.5t-48 81t-81.5 57.5t-112.5 22h-406 v-508z" />
<glyph unicode="Q" horiz-adv-x="1646" d="M88 719v8q0 110 26 213q28 108 87.5 204.5t145 168t208.5 113.5t270 42t269 -41t206.5 -110.5t143.5 -164t87 -199.5t30 -218v-11q0 -262 -134 -456l170 -168l-190 -190l-174 172q-167 -107 -408 -107q-148 0 -271.5 41.5t-208 112.5t-143.5 167t-86 202.5t-28 220.5z M354 713q1 -72 20 -141.5t58 -132.5t93.5 -110.5t132 -75.5t167.5 -28q117 0 210.5 46t150 121t84.5 166q24 80 24 162v23q-3 73 -19.5 139.5t-52.5 130t-88 110t-131.5 74.5t-177.5 28q-121 0 -215.5 -45.5t-149 -120.5t-81.5 -163q-25 -83 -25 -170v-13z" />
<glyph unicode="R" horiz-adv-x="1490" d="M170 0v1436q114 0 341 -1t341 -1q123 -1 222.5 -40.5t163 -105.5t97 -151t33.5 -179q0 -78 -19 -146.5t-59.5 -131t-113 -107.5t-170.5 -65l434 -490v-18h-310l-415 479h-275v-479h-270zM440 723h412q121 0 183.5 67t62.5 162t-63 162.5t-183 67.5h-412v-459z" />
<glyph unicode="S" horiz-adv-x="1359" d="M57 315l226 117q45 -113 154.5 -170t248.5 -57q66 0 123.5 12t105 36.5t74.5 67.5t27 99q0 176 -332 211q-69 8 -124 18t-115 27t-106 39t-88.5 55t-69.5 74t-43.5 97.5t-16.5 123.5q0 106 49 188.5t130.5 131t177 73t198.5 25.5q422 0 563 -285l-215 -111 q-39 65 -133.5 112.5t-206.5 47.5q-145 0 -221 -53t-76 -137q0 -45 24.5 -77.5t72.5 -52.5t99 -31t124 -19q70 -9 126.5 -19t118.5 -28t108.5 -41t90 -57.5t71.5 -78t45 -102.5t17 -131q0 -93 -32 -169.5t-88 -129.5t-132.5 -89t-164 -52.5t-185.5 -16.5q-114 0 -207.5 18.5 t-174.5 59t-142.5 109.5t-100.5 165z" />
<glyph unicode="T" horiz-adv-x="1249" d="M35 1188v246h1179v-246h-454v-1188h-271v1188h-454z" />
<glyph unicode="U" horiz-adv-x="1560" d="M152 610v822h268v-822q0 -190 100 -292.5t271 -102.5q166 0 258 104.5t92 290.5v822h268v-822q0 -156 -46 -278.5t-129.5 -201.5t-196.5 -120t-249 -41q-104 0 -198 25t-174.5 77t-139 126.5t-91.5 180.5t-33 232z" />
<glyph unicode="V" horiz-adv-x="1497" d="M12 1434h303l433 -1117l434 1117h303l-596 -1440h-281z" />
<glyph unicode="W" horiz-adv-x="2197" d="M18 1434h304l337 -1035l349 1035h176l358 -1035l328 1035h303l-516 -1434h-230l-178 451l-151 452l-150 -457l-174 -446h-229z" />
<glyph unicode="X" horiz-adv-x="1372" d="M16 0v8l498 717l-483 696v13h297l358 -535l358 535h297v-13l-485 -696l500 -717v-8h-303l-367 539l-367 -539h-303z" />
<glyph unicode="Y" horiz-adv-x="1423" d="M23 1421v13h321l365 -592l381 592h325v-13l-571 -829v-592h-271v592z" />
<glyph unicode="Z" horiz-adv-x="1269" d="M68 0v156l727 1030h-691v248h1084v-127l-744 -1051h744v-256h-1120z" />
<glyph unicode="[" horiz-adv-x="720" d="M156 -367v1819h493v-221h-241v-1372h241v-226h-493z" />
<glyph unicode="\" horiz-adv-x="1042" d="M47 1569h262l682 -1737h-260z" />
<glyph unicode="]" horiz-adv-x="720" d="M72 -139h241v1372h-241v221h493v-1819h-493v226z" />
<glyph unicode="^" horiz-adv-x="1316" d="M84 682v12l487 744h158l504 -742v-14h-275l-307 471l-309 -471h-258z" />
<glyph unicode="_" horiz-adv-x="1216" d="M125 -6h967v-219h-967v219z" />
<glyph unicode="`" horiz-adv-x="485" d="M-14 1421v11h295l151 -279v-12h-221z" />
<glyph unicode="a" d="M76 506q0 169 70 290q70 122 188 180q116 58 263 58h5q102 0 191 -45t131 -119l8 140h239v-1010h-235l-12 147q-40 -83 -136.5 -129.5t-191.5 -48.5h-5q-149 1 -263 59q-116 60 -184 182.5t-68 295.5zM326 506q0 -141 85 -224t214 -83q71 0 128.5 26.5t93 69.5t54.5 98 t19 112t-19 112t-54.5 98t-93 69.5t-128.5 26.5q-129 0 -214 -82t-85 -223z" />
<glyph unicode="b" d="M135 0v1432h250v-560q41 73 142.5 117.5t189.5 44.5q229 0 371.5 -137.5t142.5 -390.5q0 -244 -146 -386.5t-374 -142.5q-222 0 -326 162l-16 -139h-234zM401 506q0 -133 85.5 -215t207.5 -82t204.5 83.5t82.5 213.5q0 133 -82 214t-205 81q-121 0 -207 -83t-86 -212z " />
<glyph unicode="c" horiz-adv-x="1036" d="M76 504q0 131 42.5 234t116 168t169.5 98.5t208 33.5q110 0 196.5 -34.5t168.5 -114.5l-158 -166q-89 80 -203 80q-126 0 -208 -83.5t-82 -215.5q0 -139 81.5 -217t204.5 -78q138 0 222 84l167 -164q-86 -85 -180 -122.5t-209 -37.5q-111 0 -207.5 34t-170 99t-116 168 t-42.5 234z" />
<glyph unicode="d" d="M76 506q0 253 142.5 390.5t371.5 137.5q88 0 189.5 -44.5t142.5 -117.5v560h249v-1432h-233l-16 139q-104 -162 -326 -162q-228 0 -374 142.5t-146 386.5zM326 506q0 -130 82 -213.5t204 -83.5t207.5 82t85.5 215q0 129 -86 212t-207 83q-123 0 -204.5 -80.5 t-81.5 -214.5z" />
<glyph unicode="e" horiz-adv-x="1189" d="M76 512q0 233 146.5 380.5t389.5 147.5q262 0 400 -160q115 -133 115 -366q0 -47 -5 -98h-788q12 -96 92 -155.5t209 -59.5q73 0 151 26t119 68l160 -158q-76 -80 -194 -122t-240 -42q-258 0 -406.5 146.5t-148.5 392.5zM338 623h545q-12 96 -82 146t-180 50 q-104 0 -180 -50t-103 -146z" />
<glyph unicode="f" horiz-adv-x="815" d="M49 776v219h189v68q0 98 31.5 175t85.5 124t122 71.5t146 24.5q135 0 262 -82l-92 -186q-80 53 -154 53q-68 0 -110 -45.5t-42 -134.5v-68h297v-219h-297v-776h-249v776h-189z" />
<glyph unicode="g" horiz-adv-x="1263" d="M76 530q0 123 46.5 222.5t124.5 161.5t176 95t206 33q166 0 260 -63l112 139l185 -139l-127 -148q117 -138 117 -301q0 -264 -250 -378q250 -91 250 -328q0 -104 -47.5 -187t-127 -134t-176 -78t-200.5 -27q-262 0 -407 124q-138 118 -138 319v22h248v-12q0 -60 38 -107 q42 -52 110 -77.5t149 -26.5q73 0 137 19t108.5 62.5t44.5 102.5q0 93 -74 146t-212 53q-252 0 -402.5 136t-150.5 371zM326 530q0 -128 87.5 -203t215.5 -75q127 0 212 75.5t85 202.5q0 126 -85.5 203.5t-211.5 77.5q-130 0 -216.5 -73t-86.5 -208z" />
<glyph unicode="h" horiz-adv-x="1234" d="M135 0v1434h250v-562q117 152 315 152q209 0 311.5 -130.5t102.5 -361.5v-532h-250v530q0 132 -62 197.5t-167 65.5q-109 0 -179.5 -80.5t-70.5 -196.5v-516h-250z" />
<glyph unicode="i" horiz-adv-x="520" d="M113 1294q0 40 16.5 71.5t42.5 48t57 24t62.5 0t57.5 -24t42.5 -48t16.5 -71.5t-16.5 -71.5t-42.5 -48t-57 -24t-62.5 0t-57.5 24t-42.5 48t-16.5 71.5zM135 0h250v1014h-250v-1014z" />
<glyph unicode="j" horiz-adv-x="518" d="M-176 -440q104 -68 223 -68q171 0 253.5 98.5t82.5 303.5v1120h-248v-1120q0 -88 -20.5 -126.5t-79.5 -41.5h-10q-50 0 -111 28zM113 1296q0 40 16.5 71.5t42.5 48t57 24t62.5 0t57.5 -24t42.5 -48t16.5 -71.5t-16.5 -71.5t-42.5 -48t-57 -24t-62.5 0t-57.5 24t-42.5 48 t-16.5 71.5z" />
<glyph unicode="k" horiz-adv-x="1083" d="M135 0v1432h250v-828l340 406h299v-15l-412 -460l469 -517v-18h-301l-395 457v-457h-250z" />
<glyph unicode="l" horiz-adv-x="530" d="M141 0v1432h248v-1432h-248z" />
<glyph unicode="m" horiz-adv-x="1837" d="M135 0v1012h232l18 -123q37 71 111 105t155 34q99 0 179 -45t120 -143q64 101 147.5 142.5t190.5 41.5q212 0 320 -124t108 -355v-545h-250v545q0 108 -47 177t-143 69q-98 0 -158.5 -73t-60.5 -177v-541h-250v541q0 106 -54.5 180t-152.5 74q-97 0 -156 -74.5 t-59 -179.5v-541h-250z" />
<glyph unicode="n" horiz-adv-x="1255" d="M135 0v1012h223l17 -138q155 152 332 152q185 0 306.5 -132.5t121.5 -363.5v-530h-250v528q0 120 -64 195.5t-180 75.5q-113 0 -185.5 -82.5t-72.5 -200.5v-516h-248z" />
<glyph unicode="o" horiz-adv-x="1198" d="M74 504q0 145 62.5 264t182.5 190.5t277 71.5t278.5 -71.5t185.5 -190.5t64 -264q0 -146 -62 -265t-183 -190.5t-281 -71.5q-159 0 -280 71.5t-182.5 190t-61.5 265.5zM324 504q0 -79 29.5 -145t93.5 -109t151 -43t151 43t93.5 109t29.5 145q0 120 -76.5 209.5 t-197.5 89.5q-128 0 -201 -88.5t-73 -210.5z" />
<glyph unicode="p" horiz-adv-x="1304" d="M135 -463v1473h234l16 -140q55 80 145 121t183 41q152 0 271 -70t183 -190t64 -268q0 -149 -59 -268t-176 -190t-275 -71q-59 0 -118.5 12t-121.5 46t-96 86v-582h-250zM408 504q0 -121 80.5 -204t205.5 -83t206 83t81 204q0 123 -78 205t-209 82t-208.5 -82t-77.5 -205z " />
<glyph unicode="q" horiz-adv-x="1304" d="M74 504q0 148 64 268t183 190t271 70q93 0 183 -41t145 -121l16 140h233v-1473h-249v582q-34 -52 -96 -86t-121.5 -46t-118.5 -12q-158 0 -275 71t-176 190t-59 268zM324 504q0 -121 80.5 -204t205.5 -83t206 83t81 204q0 123 -78 205t-209 82t-208.5 -82t-77.5 -205z " />
<glyph unicode="r" horiz-adv-x="927" d="M135 0v1010h232l18 -117q53 85 123 114t162 29q76 0 147 -27t113 -69l-113 -217q-40 34 -80.5 49.5t-99.5 15.5q-108 0 -180 -62.5t-72 -193.5v-532h-250z" />
<glyph unicode="s" horiz-adv-x="1017" d="M55 145l123 179q68 -70 161.5 -105t186.5 -37h9q69 0 120 28q54 30 54 83q0 54 -48 82.5t-153 34.5q-62 5 -117 16t-111.5 34.5t-97.5 57t-66.5 86.5t-25.5 119q0 83 40 146.5t105 99t136 52.5t145 17q124 0 216 -29.5t177 -103.5l-139 -164q-95 90 -250 90 q-89 0 -136.5 -26t-47.5 -74q0 -98 188 -110q46 -3 84 -7.5t84 -15t82 -25.5t71.5 -40t58.5 -57t37.5 -77.5t14.5 -101.5q0 -142 -113.5 -237t-320.5 -95q-140 0 -253 37t-214 143z" />
<glyph unicode="t" horiz-adv-x="849" d="M59 793v215h189v260l250 26v-286h278v-215h-280v-437q0 -70 35.5 -106.5t95.5 -36.5q57 0 121 31l69 -213q-100 -40 -207 -43h-20q-154 0 -245 88q-97 94 -97 280v437h-189z" />
<glyph unicode="u" horiz-adv-x="1253" d="M119 479v531h250v-529q0 -120 63.5 -195t179.5 -75q113 0 185.5 82.5t72.5 200.5v516h248v-1012h-223l-16 137q-80 -79 -159.5 -115t-182.5 -36q-186 0 -302 132.5t-116 362.5z" />
<glyph unicode="v" horiz-adv-x="1179" d="M23 1012h272l139 -334l156 -426l153 422l140 338h272l-430 -1016h-270z" />
<glyph unicode="w" horiz-adv-x="1751" d="M37 1012h278l232 -760l219 760h219l221 -760l232 760h276l-352 -1016h-291l-104 299l-90 338l-91 -338l-104 -299h-291z" />
<glyph unicode="x" horiz-adv-x="1081" d="M23 0v6l352 506l-332 489v9h299l199 -342l198 342h299v-9l-331 -489l352 -506v-6h-299l-219 338l-219 -338h-299z" />
<glyph unicode="y" horiz-adv-x="1157" d="M33 1010h291l153 -437l96 -284l105 278l184 443h277l-635 -1473h-275l207 479z" />
<glyph unicode="z" horiz-adv-x="993" d="M61 0v104l484 678h-447v228h809v-119l-465 -645h469v-246h-850z" />
<glyph unicode="{" horiz-adv-x="729" d="M63 489v187q46 0 76.5 15t44 42.5t18.5 53.5t5 61v287q0 200 111 289t333 49v-195q-99 26 -140.5 -11t-41.5 -145v-274v-23q0 -37 -0.5 -55t-4 -47.5t-12.5 -46t-24.5 -36.5t-41 -34t-60.5 -24q27 -7 48 -17t35.5 -22t25.5 -26t17 -29.5t10 -33t5 -36t2 -38.5t0 -40v-23 v-274q0 -108 34.5 -138t147.5 -18v-194q-222 -40 -333 49t-111 289v286q0 35 -5 61t-18.5 53.5t-44 42.5t-76.5 15z" />
<glyph unicode="|" horiz-adv-x="557" d="M158 -172v1712h241v-1712h-241z" />
<glyph unicode="}" horiz-adv-x="731" d="M78 -119q113 -12 147.5 18t34.5 138v274v23q-1 102 15 142q30 71 128 99q-42 12 -70.5 32t-42.5 38.5t-21.5 53t-8 54.5t-0.5 66v23v274q0 108 -41.5 145t-140.5 11v194q222 40 333 -49t111 -289v-286q0 -35 5 -61t18.5 -53.5t44 -42.5t76.5 -15v-187q-46 0 -76.5 -15 t-44 -42.5t-18.5 -53.5t-5 -61v-286q0 -200 -111 -289t-333 -49v194z" />
<glyph unicode="~" horiz-adv-x="1253" d="M123 539q26 93 79 153.5t112 83.5t128 23q53 0 105 -19t88 -43.5t82.5 -52t83.5 -39.5q53 -16 89 14.5t66 104.5l183 -62q-23 -71 -58.5 -126.5t-86.5 -95t-114 -47.5t-141 16q-39 13 -98.5 50.5t-112 65t-94.5 27.5q-93 0 -143 -117z" />
<glyph unicode="&#xa1;" horiz-adv-x="550" d="M111 809q0 44 18 79t47 53t63.5 26t69.5 0t64 -26t47 -53t18 -79q0 -45 -18 -80t-47 -53t-63.5 -26.5t-69.5 0t-64 26.5t-47 53t-18 80zM141 -475h269v1057h-269v-1057z" />
<glyph unicode="&#xa2;" horiz-adv-x="1103" d="M98 479q0 186 111.5 330t298.5 188v150h231v-148q158 -31 273 -143l-146 -162q-40 40 -106.5 65t-124.5 25q-119 0 -204 -88.5t-85 -216.5t84.5 -215.5t204.5 -87.5q54 0 118 31.5t107 75.5l154 -181q-123 -116 -275 -145v-143h-231v147q-182 41 -296 184.5t-114 333.5z " />
<glyph unicode="&#xa3;" horiz-adv-x="1355" d="M117 0v256q98 24 144.5 101t43.5 188h-188v227h145q-37 146 -37 207q0 225 139.5 351t383.5 126q224 0 353.5 -105.5t139.5 -326.5h-248q-9 99 -69 147t-174 48q-132 0 -192 -65.5t-60 -170.5q0 -71 32 -211h424v-227h-376q7 -84 -25 -168.5t-109 -120.5h803v-256h-1130z " />
<glyph unicode="&#xa4;" horiz-adv-x="1271" d="M129 328l119 116q-100 199 8 402l-127 121l188 188l119 -121q94 40 200.5 39t197.5 -41l122 123l187 -188l-119 -119q47 -99 48 -204.5t-46 -199.5l117 -116l-185 -185l-120 119q-100 -40 -202.5 -39t-199.5 39l-119 -121zM418 647q0 -89 60.5 -155t156.5 -66 q99 0 157 65.5t58 155.5t-58 155.5t-157 65.5q-96 0 -156.5 -66t-60.5 -155z" />
<glyph unicode="&#xa5;" horiz-adv-x="1511" d="M61 1421v13h322l365 -592l380 592h326v-13l-471 -684h215v-198h-315v-105h315v-194h-315v-240h-271v240h-317v194h317v105h-317v198h221z" />
<glyph unicode="&#xa6;" horiz-adv-x="571" d="M158 -186v755h256v-755h-256zM158 698v756h256v-756h-256z" />
<glyph unicode="&#xa7;" horiz-adv-x="1265" d="M109 160l161 170q137 -149 357 -146q102 0 180.5 33.5t81.5 81.5q3 42 -68.5 67t-185.5 23q-97 -2 -187 15t-167 52.5t-121.5 99.5t-40.5 149q3 60 51 119t131 85q-89 19 -130.5 84t-37.5 135q4 75 41.5 134.5t93 94.5t128 58.5t139.5 32t135 8.5q130 0 256.5 -38 t199.5 -122l-165 -139q-63 45 -132.5 63.5t-166.5 20.5q-104 2 -182 -27.5t-81 -78.5q-1 -28 22 -49t61 -32t79.5 -16.5t83.5 -5.5q64 0 120.5 -5t119.5 -16.5t112 -35t88.5 -56.5t58.5 -85t13 -117q-6 -62 -55.5 -121t-120.5 -80q87 -26 132 -91.5t42 -127.5 q-3 -74 -42.5 -133.5t-97.5 -96.5t-131 -61.5t-139 -34.5t-127 -10q-157 0 -291.5 50t-217.5 149zM379 713q-5 -75 123 -104.5t259.5 1t135.5 101.5q5 80 -123 113.5t-259.5 0.5t-135.5 -112z" />
<glyph unicode="&#xa8;" horiz-adv-x="1046" d="M100 1341q0 39 16 69.5t41 46.5t55.5 23.5t61.5 0t56 -23.5t41 -46.5t16 -69.5q0 -54 -29.5 -90.5t-71.5 -45t-84.5 0t-72 45t-29.5 90.5zM610 1341q0 39 16 69.5t41 46.5t56 23.5t61.5 0t55.5 -23.5t41 -46.5t16 -69.5q0 -54 -29.5 -90.5t-71.5 -45t-84.5 0t-72 45 t-29.5 90.5z" />
<glyph unicode="&#xa9;" horiz-adv-x="1685" d="M96 725q0 153 52 288.5t147 238t238.5 162t316.5 59.5t315 -59.5t233.5 -162.5t141 -238t49.5 -288t-49.5 -288t-141 -238t-233.5 -162.5t-315 -59.5t-316.5 59.5t-238.5 162t-147 238t-52 288.5zM313 725q0 -155 64 -280t187.5 -199t285.5 -74q122 0 222 43t165 118 t100 175.5t35 216.5t-35 216.5t-100 175.5t-165 118t-222 43q-162 0 -285.5 -74t-187.5 -199t-64 -280zM467 721q0 -184 118.5 -287.5t297.5 -103.5q165 0 297 129l-133 125q-72 -72 -164 -72q-94 0 -160 56.5t-66 152.5q0 103 65 161t161 58q90 0 161 -68l132 121 q-127 127 -293 127q-179 0 -297.5 -107t-118.5 -292z" />
<glyph unicode="&#xaa;" horiz-adv-x="894" d="M55 1104q0 166 97 257t249 89q67 0 124.5 -29t86.5 -78l4 91h187v-662h-185l-6 96q-27 -54 -89.5 -84t-125.5 -32q-153 0 -247.5 92t-94.5 260zM80 477v178h727v-178h-727zM252 1104q0 -79 48 -125.5t120 -46.5q53 0 91.5 25.5t56 63.5t17.5 83t-17.5 83t-56 63.5 t-91.5 25.5q-72 0 -120 -46.5t-48 -125.5z" />
<glyph unicode="&#xab;" horiz-adv-x="1062" d="M72 608l284 453h267l-283 -453l283 -454h-267zM432 608l285 453h266l-283 -453l283 -454h-266z" />
<glyph unicode="&#xac;" horiz-adv-x="1095" d="M137 569v213h809v-473h-215v260h-594z" />
<glyph unicode="&#xad;" horiz-adv-x="1009" d="M127 477v230h756v-230h-756z" />
<glyph unicode="&#xae;" horiz-adv-x="1673" d="M96 719q0 153 50 288t142 237.5t233.5 162t314.5 59.5t315 -59.5t234 -162t142 -237.5t50 -288t-50 -288t-142 -238t-234 -162.5t-315 -59.5t-314.5 59.5t-233.5 162.5t-142 238t-50 288zM313 719q1 -156 61.5 -280t180.5 -198.5t281 -74.5q122 0 222 43t165 118 t100 175.5t35 216.5t-35 216.5t-100 175.5t-165 118t-222 43q-161 0 -281 -74.5t-180.5 -198.5t-61.5 -280zM541 344h198v234h70l178 -234h213v43l-186 229q44 10 78.5 32.5t55 52.5t31.5 66.5t8 74t-14 74.5t-36 69.5t-58 57t-79.5 39t-100.5 14.5h-358v-752zM739 745v173 h160q41 0 65 -27t24 -59.5t-24 -59.5t-65 -27h-160z" />
<glyph unicode="&#xaf;" horiz-adv-x="927" d="M72 1229v209h733v-209h-733z" />
<glyph unicode="&#xb0;" horiz-adv-x="731" d="M90 1219q0 122 83 191t194 69t192.5 -69t81.5 -191q0 -123 -82 -192t-194 -69q-111 0 -193 69t-82 192zM250.5 1184.5q6.5 -33.5 37.5 -57t77 -23.5t77 23.5t38 57t0 66.5t-38 56.5t-75 23.5q-46 0 -77 -23.5t-38.5 -56.5t-1 -66.5z" />
<glyph unicode="&#xb1;" horiz-adv-x="1099" d="M131 39v227h838v-227h-838zM131 655v234h293v303h250v-303h295v-234h-295v-303h-250v303h-293z" />
<glyph unicode="&#xb2;" horiz-adv-x="759" d="M76 811v197q0 61 23.5 104t61 65t83 35.5t91 21.5t83 18t61 30.5t23.5 52.5q0 86 -127 86q-48 0 -81 -19.5t-34 -55.5h-180q1 76 45.5 130.5t108.5 78.5t137 24q144 0 228.5 -60t84.5 -184q0 -64 -23.5 -109t-61 -67.5t-83 -36.5t-91 -21.5t-83 -16t-61 -27.5t-23.5 -49 v-23h416v-174h-598z" />
<glyph unicode="&#xb3;" horiz-adv-x="774" d="M66 1030h188q22 -72 127 -72q53 0 92 20t39 58q0 40 -30 66t-99 26h-117v138h109q65 0 95.5 15.5t31.5 64.5q0 26 -28.5 52.5t-96.5 26.5q-57 0 -91.5 -15t-45.5 -58h-160q0 77 47 130t112 75t140 22t142 -24t114.5 -78.5t48.5 -130.5q0 -48 -25.5 -92t-72.5 -58 q53 -17 84.5 -61.5t31.5 -94.5q0 -66 -30 -115.5t-79.5 -76.5t-104.5 -40t-113 -13q-56 0 -108.5 13.5t-98.5 40t-73.5 73.5t-28.5 108z" />
<glyph unicode="&#xb4;" horiz-adv-x="489" d="M-8 1141v12l151 279h295v-11l-225 -280h-221z" />
<glyph unicode="&#xb5;" horiz-adv-x="1269" d="M152 -442v1417h264v-535q0 -117 72 -185.5t169 -68.5t165.5 71.5t68.5 207.5v510h268v-975h-244l-24 104q-34 -71 -105 -110t-137 -39q-36 0 -64.5 4.5t-63 18t-63 44.5t-48.5 78v-542h-258z" />
<glyph unicode="&#xb6;" horiz-adv-x="1742" d="M66 893q0 82 22 160t68 147t111.5 121t157.5 82.5t200 30.5h1038v-254h-190v-1616h-271v1616h-379v-1616h-270v792q-117 12 -212 62.5t-154 125t-90 164.5t-31 185z" />
<glyph unicode="&#xb7;" horiz-adv-x="552" d="M121 561q0 73 48.5 114t107 41t107 -41t48.5 -114t-48.5 -114t-107 -41t-107 41t-48.5 114z" />
<glyph unicode="&#xb8;" horiz-adv-x="782" d="M68 -346l108 92q29 -39 82.5 -56t101.5 -4t60 52q11 37 -17.5 65.5t-71.5 30t-85 -23.5l-60 47l66 192h180l-33 -104q67 -2 114.5 -25t68 -57t29.5 -75t-1 -79q-15 -69 -63.5 -116.5t-113.5 -64t-134 -11t-132 41.5t-99 95z" />
<glyph unicode="&#xb9;" horiz-adv-x="563" d="M74 811v158h127v393l-109 -25v154l289 74v-596h131v-158h-438z" />
<glyph unicode="&#xba;" horiz-adv-x="843" d="M57 1104q0 166 101 256t264 90t263.5 -90t100.5 -256q0 -168 -101.5 -260t-262.5 -92t-263 92t-102 260zM82 467v178h680v-178h-680zM254 1104q0 -79 48 -125.5t120 -46.5t120 46.5t48 125.5t-48 125.5t-120 46.5t-120 -46.5t-48 -125.5z" />
<glyph unicode="&#xbb;" horiz-adv-x="1060" d="M80 158l282 454l-282 453h266l285 -453l-285 -454h-266zM440 158l283 454l-283 453h267l284 -453l-284 -454h-267z" />
<glyph unicode="&#xbc;" horiz-adv-x="1607" d="M94 684v158h127v393l-108 -25v154l288 74v-596h131v-158h-438zM279 -2l790 1450h217l-792 -1450h-215zM864 287l346 465h236v-461h90v-158h-90v-133h-180v133h-394zM1051 291h215v287z" />
<glyph unicode="&#xbd;" horiz-adv-x="1671" d="M90 684v158h127v393l-108 -25v154l288 74v-596h131v-158h-438zM274 -4l791 1452h217l-793 -1452h-215zM987 -8v196q0 61 23.5 104t61 65t83 36t91 22t83 18t61 30.5t23.5 52.5q0 86 -127 86q-47 0 -80.5 -20t-34.5 -56h-180q1 76 45.5 131t108.5 79t137 24 q144 0 228.5 -60t84.5 -184q0 -55 -18 -96t-47.5 -63.5t-67 -38.5t-77 -22.5t-77 -15.5t-67 -17.5t-47.5 -27.5t-18 -47v-26h405v-170h-594z" />
<glyph unicode="&#xbe;" horiz-adv-x="1675" d="M76 932h180q22 -70 123 -70q51 0 89 19.5t38 56.5q0 38 -29 63t-96 25h-113v133h105q64 0 93 14.5t30 61.5q0 26 -27.5 52t-93.5 26q-55 0 -88 -15t-43 -57h-156q0 74 46 125.5t109 72.5t134 21q73 0 138 -23t110.5 -76t46.5 -126q0 -46 -26 -88t-71 -55q52 -17 82.5 -60 t30.5 -90q0 -64 -29 -112t-76.5 -74t-100 -38.5t-109.5 -12.5q-43 0 -83.5 7.5t-79.5 25t-68 43.5t-47 65t-19 86zM367 -10l794 1458h217l-796 -1458h-215zM938 287l346 465h236v-461h86v-158h-86v-133h-181v133h-393zM1124 291h215v287z" />
<glyph unicode="&#xbf;" horiz-adv-x="1222" d="M66 45q-2 -90 27 -163.5t79.5 -123t121.5 -83.5t151 -49t169 -15q111 -1 207.5 25.5t173 78.5t121 137.5t45.5 194.5l-274 2q-3 -92 -84.5 -147.5t-186.5 -55.5q-52 0 -96.5 9t-85.5 29.5t-64.5 60.5t-23.5 96q0 35 12.5 61.5t39.5 45.5t51.5 31t65.5 29t65 30 q43 22 66.5 37t58 47.5t53 70.5t32.5 101.5t15 144.5v10l-270 2l2 -10q-2 -73 -20 -118t-60 -72q-24 -16 -69.5 -38t-85 -40t-85 -49t-77 -66t-53 -90.5t-21.5 -122.5zM510 899q0 44 18 79t47 52.5t64 26t69.5 0t63.5 -26.5t46.5 -53t17.5 -80q0 -44 -17.5 -79t-46.5 -52.5 t-64 -26t-70 0t-64 26.5t-46.5 53t-17.5 80z" />
<glyph unicode="&#xc0;" horiz-adv-x="1593" d="M6 0l643 1434h295l643 -1434h-295l-121 270h-749l-123 -270h-293zM451 1862v10h294l152 -279v-12h-221zM530 522h533l-266 611z" />
<glyph unicode="&#xc1;" horiz-adv-x="1593" d="M6 0h293l123 270h749l121 -270h295l-643 1434h-295zM530 522l267 611l266 -611h-533zM684 1581v12l152 279h294v-10l-225 -281h-221z" />
<glyph unicode="&#xc2;" horiz-adv-x="1593" d="M6 0l643 1434h295l643 -1434h-295l-121 270h-749l-123 -270h-293zM432 1542v12l303 283h137l304 -283v-12h-254l-119 121l-117 -121h-254zM530 522h533l-266 611z" />
<glyph unicode="&#xc3;" horiz-adv-x="1593" d="M6 0l643 1434h295l643 -1434h-295l-121 270h-749l-123 -270h-293zM426 1649q88 221 270 180q24 -6 57.5 -21.5t58 -26.5t51.5 -16t50.5 10t42.5 52l168 -80q-44 -116 -115 -161t-149 -23q-25 7 -60 26t-59.5 31t-53 17.5t-54.5 -12.5t-49 -62zM530 522h533l-266 611z" />
<glyph unicode="&#xc4;" horiz-adv-x="1593" d="M6 0h293l123 270h749l121 -270h295l-643 1434h-295zM395 1688q0 39 16 69.5t41 46.5t55.5 23.5t61.5 0t56 -23.5t41 -46.5t16 -69.5q0 -54 -29.5 -90.5t-72 -45t-84.5 0t-71.5 45t-29.5 90.5zM530 522l267 611l266 -611h-533zM905 1688q0 39 16 69.5t41 46.5t55.5 23.5 t61.5 0t56 -23.5t41 -46.5t16 -69.5q0 -54 -29.5 -90.5t-72 -45t-84.5 0t-71.5 45t-29.5 90.5z" />
<glyph unicode="&#xc5;" horiz-adv-x="1595" d="M8 0l639 1425q-121 66 -121 209q0 116 81.5 182t191.5 66q108 0 189 -66t81 -182q0 -72 -33 -125t-88 -84l641 -1425h-295l-120 270h-750l-123 -270h-293zM532 522h533l-266 611zM676 1636.5q0 -39.5 32 -72t87 -32.5q46 0 77 21.5t37.5 52t-1.5 61.5t-38.5 52.5 t-74.5 21.5q-56 0 -87.5 -32.5t-31.5 -72z" />
<glyph unicode="&#xc6;" horiz-adv-x="1865" d="M-49 0l909 1434h885v-254h-598v-340h575v-250h-575v-330h604v-260h-858v289h-451l-182 -289h-309zM594 528h299v256l20 316z" />
<glyph unicode="&#xc7;" horiz-adv-x="1439" d="M88 707q-1 114 28 222.5t90.5 205.5t149.5 169.5t214.5 115t277.5 42.5q304 0 526 -219l-180 -174q-69 67 -159 101t-187 34q-100 0 -184 -28.5t-140.5 -77t-95.5 -113t-57 -134.5t-17 -144q1 -93 29 -177t85 -154.5t155 -112.5t225 -42q96 0 193.5 38.5t166.5 107.5 l185 -187q-203 -200 -508 -213l-29 -92q67 -2 114.5 -25t68 -56.5t29.5 -74.5t-1 -79q-12 -57 -49 -100.5t-86.5 -65.5t-108.5 -27t-114 8t-105 46.5t-80 82.5l109 92q29 -39 82.5 -56t101.5 -4t60 52q11 37 -18 65.5t-72 30t-85 -23.5l-59 47l64 190q-156 21 -277.5 90 t-194 170.5t-109.5 220t-38 249.5z" />
<glyph unicode="&#xc8;" horiz-adv-x="1361" d="M170 0v1434h1073v-263h-805v-329h776v-252h-776v-324h805v-266h-1073zM418 1872v10h295l151 -278v-13h-221z" />
<glyph unicode="&#xc9;" horiz-adv-x="1361" d="M170 0h1073v266h-805v324h776v252h-776v329h805v263h-1073v-1434zM598 1579v12l152 279h294v-10l-225 -281h-221z" />
<glyph unicode="&#xca;" horiz-adv-x="1361" d="M170 0v1434h1073v-263h-805v-329h776v-252h-776v-324h805v-266h-1073zM385 1579v12l303 283h137l303 -283v-12h-254l-118 121l-117 -121h-254z" />
<glyph unicode="&#xcb;" horiz-adv-x="1361" d="M170 0h1073v266h-805v324h776v252h-776v329h805v263h-1073v-1434zM332 1720q0 39 16 69.5t41 46.5t55.5 23.5t61 0t55.5 -23.5t41 -46.5t16 -69.5q0 -67 -44.5 -104.5t-98.5 -37.5t-98.5 37.5t-44.5 104.5zM842 1720q0 39 16 69.5t41 46.5t55.5 23.5t61 0t55.5 -23.5 t41 -46.5t16 -69.5q0 -67 -44.5 -104.5t-98.5 -37.5t-98.5 37.5t-44.5 104.5z" />
<glyph unicode="&#xcc;" horiz-adv-x="608" d="M-25 1845v10h295l152 -278v-12h-221zM170 0v1434h268v-1434h-268z" />
<glyph unicode="&#xcd;" horiz-adv-x="608" d="M170 0h268v1434h-268v-1434zM184 1565v12l152 278h295v-10l-225 -280h-222z" />
<glyph unicode="&#xce;" horiz-adv-x="608" d="M-63 1552v13l303 282h137l303 -282v-13h-254l-119 121l-117 -121h-253zM170 0v1434h268v-1434h-268z" />
<glyph unicode="&#xcf;" horiz-adv-x="608" d="M-66 1696q0 39 16 69.5t41 46.5t55.5 23.5t61.5 0t56 -23.5t41 -46.5t16 -69.5q0 -54 -29.5 -90.5t-71.5 -45t-84.5 0t-72 45t-29.5 90.5zM170 0h268v1434h-268v-1434zM373 1696q0 39 16 69.5t41 46.5t55.5 23.5t61 0t55.5 -23.5t41 -46.5t16 -69.5q0 -67 -44.5 -104.5 t-98.5 -37.5t-98.5 37.5t-44.5 104.5z" />
<glyph unicode="&#xd0;" horiz-adv-x="1546" d="M41 600v229h143v605h531q176 0 319 -54.5t234.5 -149t140.5 -218.5t49 -267q0 -152 -45.5 -284t-134 -236t-233.5 -164.5t-330 -60.5h-531v600h-143zM444 248h271q236 0 356.5 132.5t120.5 356.5q0 217 -122.5 335t-354.5 118h-271v-361h277v-229h-277v-352z" />
<glyph unicode="&#xd1;" horiz-adv-x="1591" d="M170 0v1434h219l762 -965v965h270v-1434h-219l-762 954v-954h-270zM467 1661q88 216 264 176q23 -6 56 -21.5t57.5 -26t51 -15.5t49 10t40.5 51l164 -78q-42 -113 -111.5 -156.5t-146.5 -23.5q-24 7 -57.5 25.5t-57.5 30.5t-52 17t-53 -12.5t-48 -60.5z" />
<glyph unicode="&#xd2;" horiz-adv-x="1642" d="M86 707q0 166 58 308.5t157.5 239.5t236 152t291.5 55q142 -1 263.5 -44t206.5 -115.5t145 -168.5t88 -204t27 -221q-1 -114 -29 -220t-87 -201.5t-143.5 -166.5t-207 -112.5t-269.5 -41.5t-269.5 41t-208 111t-145 164.5t-87 201.5t-27.5 222zM352 702 q2 -74 18.5 -141.5t53 -131.5t89 -111t132.5 -75t178 -28t178 28.5t132.5 76t88.5 111.5t52.5 132t17.5 142t-14.5 145t-52 137t-89.5 116.5t-132 81t-175 32.5q-148 0 -259.5 -69.5t-166.5 -186t-51 -259.5zM524 1878v10h295l152 -278v-13h-221z" />
<glyph unicode="&#xd3;" horiz-adv-x="1642" d="M86 707q0 -115 27.5 -222t87 -201.5t145 -164.5t208 -111t269.5 -41t269.5 41.5t207 112.5t143.5 166.5t87 201.5t29 220q1 113 -27 221t-88 204t-145 168.5t-206.5 115.5t-263.5 44q-155 0 -291.5 -55t-236 -152t-157.5 -239.5t-58 -308.5zM352 702q-4 143 51 259.5 t166.5 186t259.5 69.5q96 -2 175 -32.5t132 -81t89.5 -116.5t52 -137t14.5 -145t-17.5 -142t-52.5 -132t-88.5 -111.5t-132.5 -76t-178 -28.5t-178 28t-132.5 75t-89 111t-53 131.5t-18.5 141.5zM707 1587v12l151 279h295v-10l-225 -281h-221z" />
<glyph unicode="&#xd4;" horiz-adv-x="1642" d="M86 707q0 166 58 308.5t157.5 239.5t236 152t291.5 55q142 -1 263.5 -44t206.5 -115.5t145 -168.5t88 -204t27 -221q-1 -114 -29 -220t-87 -201.5t-143.5 -166.5t-207 -112.5t-269.5 -41.5t-269.5 41t-208 111t-145 164.5t-87 201.5t-27.5 222zM352 702 q2 -74 18.5 -141.5t53 -131.5t89 -111t132.5 -75t178 -28t178 28.5t132.5 76t88.5 111.5t52.5 132t17.5 142t-14.5 145t-52 137t-89.5 116.5t-132 81t-175 32.5q-148 0 -259.5 -69.5t-166.5 -186t-51 -259.5zM475 1589v13l303 282h137l304 -282v-13h-254l-119 121l-117 -121 h-254z" />
<glyph unicode="&#xd5;" horiz-adv-x="1642" d="M86 707q0 166 58 308.5t157.5 239.5t236 152t291.5 55q142 -1 263.5 -44t206.5 -115.5t145 -168.5t88 -204t27 -221q-1 -114 -29 -220t-87 -201.5t-143.5 -166.5t-207 -112.5t-269.5 -41.5t-269.5 41t-208 111t-145 164.5t-87 201.5t-27.5 222zM352 702 q2 -74 18.5 -141.5t53 -131.5t89 -111t132.5 -75t178 -28t178 28.5t132.5 76t88.5 111.5t52.5 132t17.5 142t-14.5 145t-52 137t-89.5 116.5t-132 81t-175 32.5q-148 0 -259.5 -69.5t-166.5 -186t-51 -259.5zM500 1671q88 216 264 176q23 -6 56 -21.5t57.5 -26t51 -15.5 t49 10t40.5 51l164 -78q-42 -113 -111.5 -156.5t-146.5 -23.5q-24 7 -58 25.5t-58 30.5t-51.5 17t-53 -12.5t-48.5 -60.5z" />
<glyph unicode="&#xd6;" horiz-adv-x="1642" d="M86 707q0 -115 27.5 -222t87 -201.5t145 -164.5t208 -111t269.5 -41t269.5 41.5t207 112.5t143.5 166.5t87 201.5t29 220q1 113 -27 221t-88 204t-145 168.5t-206.5 115.5t-263.5 44q-155 0 -291.5 -55t-236 -152t-157.5 -239.5t-58 -308.5zM352 702q-4 143 51 259.5 t166.5 186t259.5 69.5q96 -2 175 -32.5t132 -81t89.5 -116.5t52 -137t14.5 -145t-17.5 -142t-52.5 -132t-88.5 -111.5t-132.5 -76t-178 -28.5t-178 28t-132.5 75t-89 111t-53 131.5t-18.5 141.5zM442 1716q0 39 16 69.5t41 46.5t56 23.5t61.5 0t55.5 -23.5t41 -46.5 t16 -69.5q0 -54 -29.5 -90.5t-71.5 -45t-84.5 0t-72 45t-29.5 90.5zM946 1716q0 39 16 69.5t41 46.5t56 23.5t61.5 0t55.5 -23.5t41 -46.5t16 -69.5q0 -54 -29.5 -90.5t-71.5 -45t-84.5 0t-72 45t-29.5 90.5z" />
<glyph unicode="&#xd7;" horiz-adv-x="942" d="M111 453l200 196l-196 197l166 160l190 -199l199 203l155 -156l-204 -211l210 -209l-155 -149l-207 209l-197 -203z" />
<glyph unicode="&#xd8;" horiz-adv-x="1642" d="M86 707q0 115 28.5 223.5t88.5 205t145.5 169t208 115t266.5 42.5q146 0 279 -47l92 154h262l-160 -266q129 -106 197 -264t66 -330q-1 -114 -29 -220t-87 -201.5t-143.5 -166.5t-207 -112.5t-269.5 -41.5q-166 0 -299 51l-100 -165h-260l168 278q-121 103 -183.5 254 t-62.5 322zM352 702q2 -95 31 -184t86 -156l502 834q-79 21 -148 21q-98 0 -179 -30.5t-135 -81t-91 -117.5t-52.5 -139t-13.5 -147zM655 238q80 -23 168 -23q98 0 178 28.5t132.5 76t88.5 111.5t52.5 132t17.5 142q2 104 -31 203t-100 171z" />
<glyph unicode="&#xd9;" horiz-adv-x="1560" d="M152 610v822h268v-822q0 -190 100 -292.5t271 -102.5q166 0 258 104.5t92 290.5v822h268v-822q0 -156 -46 -278.5t-129.5 -201.5t-196.5 -120t-249 -41q-104 0 -198 25t-174.5 77t-139 126.5t-91.5 180.5t-33 232zM496 1878v10h295l151 -278v-13h-221z" />
<glyph unicode="&#xda;" horiz-adv-x="1560" d="M152 610q0 -126 33 -232t91.5 -180.5t139 -126.5t174.5 -77t198 -25q136 0 249 41t196.5 120t129.5 201.5t46 278.5v822h-268v-822q0 -186 -92 -290.5t-258 -104.5q-171 0 -271 102.5t-100 292.5v822h-268v-822zM659 1595v13l152 278h295v-10l-225 -281h-222z" />
<glyph unicode="&#xdb;" horiz-adv-x="1560" d="M152 610v822h268v-822q0 -190 100 -292.5t271 -102.5q166 0 258 104.5t92 290.5v822h268v-822q0 -156 -46 -278.5t-129.5 -201.5t-196.5 -120t-249 -41q-104 0 -198 25t-174.5 77t-139 126.5t-91.5 180.5t-33 232zM416 1591v13l303 282h137l303 -282v-13h-254l-119 121 l-116 -121h-254z" />
<glyph unicode="&#xdc;" horiz-adv-x="1560" d="M152 610q0 -126 33 -232t91.5 -180.5t139 -126.5t174.5 -77t198 -25q136 0 249 41t196.5 120t129.5 201.5t46 278.5v822h-268v-822q0 -186 -92 -290.5t-258 -104.5q-171 0 -271 102.5t-100 292.5v822h-268v-822zM403 1710q0 39 16 69.5t41 46.5t55.5 23.5t61.5 0 t56 -23.5t41 -46.5t16 -69.5q0 -54 -29.5 -90.5t-72 -45t-84.5 0t-71.5 45t-29.5 90.5zM913 1710q0 39 16 69.5t41 46.5t55.5 23.5t61.5 0t56 -23.5t41 -46.5t16 -69.5q0 -54 -29.5 -90.5t-72 -45t-84.5 0t-71.5 45t-29.5 90.5z" />
<glyph unicode="&#xdd;" horiz-adv-x="1423" d="M23 1421l550 -829v-592h271v592l571 829v13h-325l-381 -592l-365 592h-321v-13zM582 1579v12l151 279h295v-10l-225 -281h-221z" />
<glyph unicode="&#xde;" horiz-adv-x="1425" d="M170 0l2 1432h266v-234h408q102 0 189 -27t148 -73t104.5 -107.5t63.5 -130.5t20 -142t-20 -142t-63.5 -130.5t-104.5 -107.5t-148 -73t-189 -27h-406v-238h-270zM440 479h406q71 0 127 26t84.5 67.5t42 91.5t0 100.5t-42.5 92t-84.5 67.5t-126.5 26h-406v-471z" />
<glyph unicode="&#xdf;" horiz-adv-x="1282" d="M135 0v1053q0 97 43 175.5t114 127t156.5 74.5t174.5 26q96 0 181.5 -25.5t154 -73.5t109 -126t40.5 -176q0 -88 -58 -158.5t-159 -93.5q86 -20 150.5 -61.5t99.5 -94t52 -105t17 -104.5q0 -93 -25.5 -170t-71.5 -131.5t-109.5 -91.5t-140 -52.5t-163 -13t-178.5 24.5 l-2 227q111 -26 191.5 -21t132 38t76 79t24.5 103q0 78 -49 137t-121 87t-153 28h-97v238h90q55 0 103 11t86.5 43t40.5 81q3 59 -31.5 99t-82 55.5t-103.5 15.5q-98 0 -160.5 -45t-65.5 -125v-482q0 -82 1 -289t1 -284h-268z" />
<glyph unicode="&#xe0;" d="M76 506q0 169 70.5 290.5t188 180t267.5 57.5q102 0 191 -45t131 -119l8 140h239v-1010h-235l-12 147q-40 -83 -136.5 -129.5t-191.5 -48.5q-151 -1 -267.5 58.5t-184.5 182.5t-68 296zM326 506q0 -141 85 -224t214 -83q71 0 128.5 26.5t93 69.5t54.5 98t19 112t-19 112 t-54.5 98t-93 69.5t-128.5 26.5q-129 0 -214 -82t-85 -223zM336 1442v10h295l151 -278v-13h-221z" />
<glyph unicode="&#xe1;" d="M76 506q0 -173 68 -296t184.5 -182.5t267.5 -58.5q95 2 191.5 48.5t136.5 129.5l12 -147h235v1010h-239l-8 -140q-42 74 -131 119t-191 45q-150 1 -267.5 -57.5t-188 -180t-70.5 -290.5zM326 506q0 141 85 223t214 82q71 0 128.5 -26.5t93 -69.5t54.5 -98t19 -112 t-19 -112t-54.5 -98t-93 -69.5t-128.5 -26.5q-129 0 -214 83t-85 224zM463 1163v13l151 278h295v-10l-225 -281h-221z" />
<glyph unicode="&#xe2;" d="M76 506q0 169 70.5 290.5t188 180t267.5 57.5q102 0 191 -45t131 -119l8 140h239v-1010h-235l-12 147q-40 -83 -136.5 -129.5t-191.5 -48.5q-151 -1 -267.5 58.5t-184.5 182.5t-68 296zM293 1165v13l303 282h137l303 -282v-13h-254l-118 121l-117 -121h-254zM326 506 q0 -141 85 -224t214 -83q71 0 128.5 26.5t93 69.5t54.5 98t19 112t-19 112t-54.5 98t-93 69.5t-128.5 26.5q-129 0 -214 -82t-85 -223z" />
<glyph unicode="&#xe3;" d="M76 506q0 169 70.5 290.5t188 180t267.5 57.5q102 0 191 -45t131 -119l8 140h239v-1010h-235l-12 147q-40 -83 -136.5 -129.5t-191.5 -48.5q-151 -1 -267.5 58.5t-184.5 182.5t-68 296zM324 1282q88 216 264 176q23 -6 56 -21.5t57.5 -26t51 -15.5t49 10t40.5 51l164 -78 q-42 -113 -111.5 -156.5t-146.5 -23.5q-24 7 -58 25.5t-58 30.5t-51.5 17t-53 -12.5t-48.5 -60.5zM326 506q0 -141 85 -224t214 -83q71 0 128.5 26.5t93 69.5t54.5 98t19 112t-19 112t-54.5 98t-93 69.5t-128.5 26.5q-129 0 -214 -82t-85 -223z" />
<glyph unicode="&#xe4;" d="M76 506q0 -173 68 -296t184.5 -182.5t267.5 -58.5q95 2 191.5 48.5t136.5 129.5l12 -147h235v1010h-239l-8 -140q-42 74 -131 119t-191 45q-150 1 -267.5 -57.5t-188 -180t-70.5 -290.5zM274 1341q0 39 16 69.5t41 46.5t55.5 23.5t61.5 0t56 -23.5t41 -46.5t16 -69.5 q0 -54 -29.5 -90.5t-72 -45t-84.5 0t-71.5 45t-29.5 90.5zM326 506q0 141 85 223t214 82q71 0 128.5 -26.5t93 -69.5t54.5 -98t19 -112t-19 -112t-54.5 -98t-93 -69.5t-128.5 -26.5q-129 0 -214 83t-85 224zM784 1341q0 39 16 69.5t41 46.5t56 23.5t61.5 0t55.5 -23.5 t41 -46.5t16 -69.5q0 -54 -29.5 -90.5t-71.5 -45t-84.5 0t-72 45t-29.5 90.5z" />
<glyph unicode="&#xe5;" d="M76 506q0 169 70.5 290.5t188 180t267.5 57.5q102 0 191 -45t131 -119l8 140h239v-1010h-235l-12 147q-40 -83 -136.5 -129.5t-191.5 -48.5q-151 -1 -267.5 58.5t-184.5 182.5t-68 296zM326 506q0 -141 85 -224t214 -83q71 0 128.5 26.5t93 69.5t54.5 98t19 112t-19 112 t-54.5 98t-93 69.5t-128.5 26.5q-129 0 -214 -82t-85 -223zM379 1382q0 112 78.5 175t183.5 63t182.5 -63t77.5 -175t-77.5 -174.5t-182.5 -62.5t-183.5 62.5t-78.5 174.5zM522.5 1384.5q0.5 -37.5 31 -69t83.5 -31.5q56 0 86.5 31.5t30 69t-32 69t-84.5 31.5 q-54 0 -84.5 -31.5t-30 -69z" />
<glyph unicode="&#xe6;" horiz-adv-x="2017" d="M76 506q0 169 70.5 290.5t188 180t267.5 57.5q102 0 191 -45t131 -119l8 140h188v-127q121 159 350 155q83 -2 163 -30.5t146.5 -81.5t112 -129t60.5 -171.5t-8 -209.5h-789q12 -96 92 -155.5t209 -59.5q73 0 151 26t119 68l160 -158q-76 -80 -194 -122t-240 -42 q-228 0 -332 158l-10 -131h-184l-2 147q-40 -83 -136.5 -129.5t-191.5 -48.5q-151 -1 -267.5 58.5t-184.5 182.5t-68 296zM326 506q0 -141 85 -224t214 -83q74 0 134 26.5t97 69.5t57 98t20 112t-20 112t-57 98t-97 69.5t-134 26.5q-129 0 -214 -82t-85 -223zM1159 623h545 q-12 96 -82 146t-180 50q-104 0 -180 -50t-103 -146z" />
<glyph unicode="&#xe7;" horiz-adv-x="1042" d="M78 504q0 131 42.5 234t116 168t169.5 98.5t208 33.5q110 0 196.5 -34.5t168.5 -114.5l-158 -166q-89 80 -203 80q-126 0 -208 -83.5t-82 -215.5q0 -139 81.5 -217t204.5 -78q138 0 222 84l168 -164q-83 -82 -172 -119.5t-197 -40.5l-25 -78q67 -2 114.5 -24t68 -55 t29.5 -73t-1 -77q-18 -82 -88.5 -131.5t-154.5 -56t-169 28.5t-130 106l108 90q29 -38 82.5 -54.5t101.5 -4t60 50.5q11 37 -17.5 63.5t-71.5 28t-85 -22.5l-60 45l64 183q-174 40 -278.5 171.5t-104.5 344.5z" />
<glyph unicode="&#xe8;" horiz-adv-x="1189" d="M76 512q0 233 146.5 380.5t389.5 147.5q261 0 399.5 -160t110.5 -464h-788q12 -96 92 -155.5t209 -59.5q73 0 151 26t119 68l160 -158q-76 -80 -194 -122t-240 -42q-258 0 -406.5 146.5t-148.5 392.5zM311 1450v10h295l152 -278v-13h-221zM338 623h545q-12 96 -82 146 t-180 50q-104 0 -180 -50t-103 -146z" />
<glyph unicode="&#xe9;" horiz-adv-x="1189" d="M76 512q0 -246 148.5 -392.5t406.5 -146.5q122 0 240 42t194 122l-160 158q-41 -42 -119 -68t-151 -26q-129 0 -209 59.5t-92 155.5h788q28 304 -110.5 464t-399.5 160q-243 0 -389.5 -147.5t-146.5 -380.5zM338 623q27 96 103 146t180 50q110 0 180 -50t82 -146h-545z M461 1174v12l151 278h295v-10l-225 -280h-221z" />
<glyph unicode="&#xea;" horiz-adv-x="1189" d="M76 512q0 233 146.5 380.5t389.5 147.5q261 0 399.5 -160t110.5 -464h-788q12 -96 92 -155.5t209 -59.5q73 0 151 26t119 68l160 -158q-76 -80 -194 -122t-240 -42q-258 0 -406.5 146.5t-148.5 392.5zM254 1165v13l303 282h137l303 -282v-13h-254l-118 121l-117 -121 h-254zM338 623h545q-12 96 -82 146t-180 50q-104 0 -180 -50t-103 -146z" />
<glyph unicode="&#xeb;" horiz-adv-x="1189" d="M76 512q0 -246 148.5 -392.5t406.5 -146.5q122 0 240 42t194 122l-160 158q-41 -42 -119 -68t-151 -26q-129 0 -209 59.5t-92 155.5h788q28 304 -110.5 464t-399.5 160q-243 0 -389.5 -147.5t-146.5 -380.5zM268 1313q0 39 16 69.5t41 46.5t55.5 23.5t61.5 0t56 -23.5 t41 -46.5t16 -69.5q0 -54 -29.5 -90.5t-72 -45t-84.5 0t-71.5 45t-29.5 90.5zM338 623q27 96 103 146t180 50q110 0 180 -50t82 -146h-545zM705 1313q0 45 21 78.5t53 48.5t69 15t69 -15t53 -48.5t21 -78.5q0 -67 -44.5 -104.5t-98.5 -37.5t-98.5 37.5t-44.5 104.5z" />
<glyph unicode="&#xec;" horiz-adv-x="532" d="M45 1419v11h268l86 -291v-13h-202zM135 0v975h262v-975h-262z" />
<glyph unicode="&#xed;" horiz-adv-x="532" d="M135 0h262v975h-262v-975zM141 1126v13l86 291h269v-11l-152 -293h-203z" />
<glyph unicode="&#xee;" horiz-adv-x="532" d="M-47 1130v13l266 299h119l266 -299v-13h-223l-102 127l-103 -127h-223zM135 0v975h262v-975h-262z" />
<glyph unicode="&#xef;" horiz-adv-x="532" d="M-49 1309q0 39 16 69.5t41 46.5t55.5 23.5t61.5 0t56 -23.5t41 -46.5t16 -69.5q0 -54 -29.5 -90.5t-71.5 -45t-84.5 0t-72 45t-29.5 90.5zM135 0h262v975h-262v-975zM330 1309q0 39 16 69.5t41 46.5t55.5 23.5t61 0t55.5 -23.5t41 -46.5t16 -69.5q0 -67 -44.5 -104.5 t-98.5 -37.5t-98.5 37.5t-44.5 104.5z" />
<glyph unicode="&#xf0;" horiz-adv-x="1202" d="M76 487q0 85 26 164.5t75 146.5t127.5 115t176.5 66q86 12 177 -5t139 -59q-25 66 -96 127.5t-109 71.5l-64 -72l-120 80l53 64q-54 32 -168 47l45 203q150 -20 270 -74l88 104l123 -88l-76 -88q206 -162 290.5 -348t84.5 -428q0 -238 -139.5 -385t-380.5 -147 q-126 0 -227.5 42.5t-164.5 114t-96.5 161t-33.5 187.5zM332 489q0 -116 70.5 -200t195.5 -84t194.5 84t69.5 200q0 73 -28.5 136t-90 105t-145.5 42q-125 0 -195.5 -84.5t-70.5 -198.5z" />
<glyph unicode="&#xf1;" horiz-adv-x="1255" d="M135 0v1012h223l17 -138q155 152 332 152q185 0 306.5 -132.5t121.5 -363.5v-530h-250v528q0 120 -64 195.5t-180 75.5q-113 0 -185.5 -82.5t-72.5 -200.5v-516h-248zM287 1288q88 216 264 176q23 -6 56 -21.5t57.5 -26t51 -15.5t49 10t40.5 51l164 -78 q-42 -113 -111.5 -156.5t-146.5 -23.5q-24 7 -58 25.5t-58 30.5t-51.5 17t-53 -12.5t-48.5 -60.5z" />
<glyph unicode="&#xf2;" horiz-adv-x="1198" d="M74 504q0 145 62.5 264t182.5 190.5t277 71.5t278.5 -71.5t185.5 -190.5t64 -264q0 -146 -62 -265t-183 -190.5t-281 -71.5q-159 0 -280 71.5t-182.5 190t-61.5 265.5zM303 1436v10h295l152 -279v-12h-222zM324 504q0 -79 29.5 -145t93.5 -109t151 -43t151 43t93.5 109 t29.5 145q0 120 -76.5 209.5t-197.5 89.5q-128 0 -201 -88.5t-73 -210.5z" />
<glyph unicode="&#xf3;" horiz-adv-x="1198" d="M74 504q0 -147 61.5 -265.5t182.5 -190t280 -71.5q160 0 281 71.5t183 190.5t62 265q0 145 -64 264t-185.5 190.5t-278.5 71.5t-277 -71.5t-182.5 -190.5t-62.5 -264zM324 504q0 122 73 210.5t201 88.5q121 0 197.5 -89.5t76.5 -209.5q0 -79 -29.5 -145t-93.5 -109 t-151 -43t-151 43t-93.5 109t-29.5 145zM473 1151v12l152 279h295v-10l-226 -281h-221z" />
<glyph unicode="&#xf4;" horiz-adv-x="1198" d="M74 504q0 145 62.5 264t182.5 190.5t277 71.5t278.5 -71.5t185.5 -190.5t64 -264q0 -146 -62 -265t-183 -190.5t-281 -71.5q-159 0 -280 71.5t-182.5 190t-61.5 265.5zM225 1145v12l303 283h138l303 -283v-12h-254l-119 121l-117 -121h-254zM324 504q0 -79 29.5 -145 t93.5 -109t151 -43t151 43t93.5 109t29.5 145q0 120 -76.5 209.5t-197.5 89.5q-128 0 -201 -88.5t-73 -210.5z" />
<glyph unicode="&#xf5;" horiz-adv-x="1198" d="M74 504q0 145 62.5 264t182.5 190.5t277 71.5t278.5 -71.5t185.5 -190.5t64 -264q0 -146 -62 -265t-183 -190.5t-281 -71.5q-159 0 -280 71.5t-182.5 190t-61.5 265.5zM262 1274q88 216 264 176q23 -6 56 -21.5t57.5 -26t51 -15.5t49 10t40.5 51l164 -78 q-42 -113 -111.5 -156.5t-146.5 -23.5q-24 7 -57.5 25.5t-57.5 30.5t-52 17t-53 -12.5t-48 -60.5zM324 504q0 -79 29.5 -145t93.5 -109t151 -43t151 43t93.5 109t29.5 145q0 120 -76.5 209.5t-197.5 89.5q-128 0 -201 -88.5t-73 -210.5z" />
<glyph unicode="&#xf6;" horiz-adv-x="1198" d="M74 504q0 -147 61.5 -265.5t182.5 -190t280 -71.5q160 0 281 71.5t183 190.5t62 265q0 145 -64 264t-185.5 190.5t-278.5 71.5t-277 -71.5t-182.5 -190.5t-62.5 -264zM244 1327q0 45 21 78.5t53 48.5t69 15t69 -15t53 -48.5t21 -78.5q0 -67 -44.5 -104.5t-98.5 -37.5 t-98.5 37.5t-44.5 104.5zM324 504q0 122 73 210.5t201 88.5q121 0 197.5 -89.5t76.5 -209.5q0 -79 -29.5 -145t-93.5 -109t-151 -43t-151 43t-93.5 109t-29.5 145zM666 1327q0 45 21 78.5t53 48.5t69 15t69 -15t53 -48.5t21 -78.5q0 -67 -44.5 -104.5t-98.5 -37.5 t-98.5 37.5t-44.5 104.5z" />
<glyph unicode="&#xf7;" horiz-adv-x="1128" d="M106 545h916v241h-916v-241zM422 281q0 39 16 69.5t41 46.5t56 23.5t61.5 0t55.5 -23.5t41 -46.5t16 -69.5q0 -54 -29.5 -90.5t-71.5 -45t-84.5 0t-72 45t-29.5 90.5zM422 1042q0 39 16 69.5t41 46.5t56 23.5t61.5 0t55.5 -23.5t41 -46.5t16 -69.5q0 -54 -29.5 -90.5 t-71.5 -45t-84.5 0t-72 45t-29.5 90.5z" />
<glyph unicode="&#xf8;" horiz-adv-x="1198" d="M74 504q0 145 62.5 264t182.5 190.5t277 71.5q91 0 180 -29l76 129h235l-135 -229q83 -72 127.5 -175t44.5 -222q0 -146 -62 -265t-183 -190.5t-281 -71.5q-81 0 -176 25l-80 -135h-236l138 233q-83 71 -126.5 176t-43.5 228zM324 504q0 -108 51 -182l280 475 q-27 6 -57 6q-128 0 -201 -88.5t-73 -210.5zM545 211q16 -4 53 -4q87 0 151 43t93.5 109t29.5 145q0 95 -51 174z" />
<glyph unicode="&#xf9;" horiz-adv-x="1253" d="M119 479v531h250v-529q0 -120 63.5 -195t179.5 -75q113 0 185.5 82.5t72.5 200.5v516h248v-1012h-223l-16 137q-80 -79 -159.5 -115t-182.5 -36q-186 0 -302 132.5t-116 362.5zM317 1423v11h295l152 -279v-12h-221z" />
<glyph unicode="&#xfa;" horiz-adv-x="1253" d="M119 479q0 -230 116 -362.5t302 -132.5q103 0 182.5 36t159.5 115l16 -137h223v1012h-248v-516q0 -118 -72.5 -200.5t-185.5 -82.5q-116 0 -179.5 75t-63.5 195v529h-250v-531zM494 1143v12l151 279h295v-11l-225 -280h-221z" />
<glyph unicode="&#xfb;" horiz-adv-x="1253" d="M119 479v531h250v-529q0 -120 63.5 -195t179.5 -75q113 0 185.5 82.5t72.5 200.5v516h248v-1012h-223l-16 137q-80 -79 -159.5 -115t-182.5 -36q-186 0 -302 132.5t-116 362.5zM266 1147v12l303 283h138l303 -283v-12h-254l-119 121l-117 -121h-254z" />
<glyph unicode="&#xfc;" horiz-adv-x="1253" d="M119 479q0 -230 116 -362.5t302 -132.5q103 0 182.5 36t159.5 115l16 -137h223v1012h-248v-516q0 -118 -72.5 -200.5t-185.5 -82.5q-116 0 -179.5 75t-63.5 195v529h-250v-531zM229 1321q0 39 16 69.5t41 46.5t55.5 23.5t61.5 0t56 -23.5t41 -46.5t16 -69.5 q0 -54 -29.5 -90.5t-72 -45t-84.5 0t-71.5 45t-29.5 90.5zM739 1321q0 39 16 69.5t41 46.5t55.5 23.5t61.5 0t56 -23.5t41 -46.5t16 -69.5q0 -54 -29.5 -90.5t-72 -45t-84.5 0t-71.5 45t-29.5 90.5z" />
<glyph unicode="&#xfd;" horiz-adv-x="1157" d="M33 1010l403 -994l-207 -479h275l635 1473h-277l-184 -443l-105 -278l-96 284l-153 437h-291zM424 1145v12l151 279h295v-11l-225 -280h-221z" />
<glyph unicode="&#xfe;" d="M135 -422v1856h250v-562q48 75 142.5 117.5t187.5 42.5q150 0 265 -58.5t183 -179.5t68 -290q0 -253 -141.5 -391t-370.5 -138q-92 0 -185.5 39.5t-148.5 122.5v-559h-250zM408 504q0 -119 84 -203t202 -84q123 0 205 77.5t82 209.5t-82 209.5t-205 77.5q-118 0 -202 -84 t-84 -203z" />
<glyph unicode="&#xff;" horiz-adv-x="1157" d="M33 1010l403 -994l-207 -479h275l635 1473h-277l-184 -443l-105 -278l-96 284l-153 437h-291zM211 1305q0 39 16 69.5t41 46.5t55.5 23.5t61.5 0t56 -23.5t41 -46.5t16 -69.5q0 -54 -29.5 -90.5t-72 -45t-84.5 0t-71.5 45t-29.5 90.5zM721 1305q0 39 16 69.5t41 46.5 t55.5 23.5t61.5 0t56 -23.5t41 -46.5t16 -69.5q0 -54 -29.5 -90.5t-72 -45t-84.5 0t-71.5 45t-29.5 90.5z" />
<glyph unicode="&#x152;" horiz-adv-x="2109" d="M88 725q0 161 46.5 294.5t136 232.5t229.5 154.5t319 55.5q121 0 236 -32v4h936v-269h-686v-319h657v-256h-657v-320h686v-268h-936q-119 -33 -236 -33q-181 0 -322.5 58t-229.5 161.5t-133.5 239.5t-45.5 297zM358 719q0 -100 29.5 -191.5t86 -165.5t148 -118.5 t205.5 -44.5q139 0 228 41v950q-96 45 -234 45q-114 0 -203.5 -40t-145.5 -110.5t-85 -163.5t-29 -202z" />
<glyph unicode="&#x153;" horiz-adv-x="1953" d="M74 504q0 145 62.5 264.5t182.5 191.5t277 72q126 0 231.5 -53.5t163.5 -149.5q47 92 151 149.5t234 57.5q262 0 400 -158t110 -462h-782q12 -97 89.5 -156t205.5 -59q73 0 151 26t119 68l160 -158q-76 -80 -194 -122t-240 -42q-142 0 -249 53t-167 154 q-139 -203 -381 -203q-159 0 -280 71.5t-182.5 190t-61.5 265.5zM324 504q0 -79 29.5 -145t93.5 -109t151 -43t151 43t93.5 109t29.5 145q0 120 -76.5 209.5t-197.5 89.5q-128 0 -201 -88.5t-73 -210.5zM1102 623h545q-12 96 -82.5 146t-180.5 50q-104 0 -179.5 -50 t-102.5 -146z" />
<glyph unicode="&#x178;" horiz-adv-x="1423" d="M23 1421l550 -829v-592h271v592l571 829v13h-325l-381 -592l-365 592h-321v-13zM336 1722q0 64 42.5 100t93.5 36t93.5 -36t42.5 -100q0 -37 -15 -65.5t-39 -43.5t-53 -22t-58 0t-53 22t-39 43.5t-15 65.5zM819 1722q0 43 20 74.5t50 46t65.5 14.5t65.5 -14.5t50 -46 t20 -74.5q0 -37 -15 -65.5t-39 -43.5t-53 -22t-57.5 0t-52.5 22t-39 43.5t-15 65.5z" />
<glyph unicode="&#x2c6;" horiz-adv-x="870" d="M45 1169v13l303 282h137l303 -282v-13h-253l-119 121l-117 -121h-254z" />
<glyph unicode="&#x2dc;" horiz-adv-x="813" d="M57 1401q88 217 265 176q23 -6 56 -21.5t57 -26t50.5 -15.5t49 10t40.5 51l164 -78q-42 -113 -111.5 -156.5t-146.5 -23.5q-24 7 -57.5 25.5t-57.5 30.5t-52 17t-53 -12.5t-48 -60.5z" />
<glyph unicode="&#x2000;" horiz-adv-x="944" />
<glyph unicode="&#x2001;" horiz-adv-x="1888" />
<glyph unicode="&#x2002;" horiz-adv-x="944" />
<glyph unicode="&#x2003;" horiz-adv-x="1888" />
<glyph unicode="&#x2004;" horiz-adv-x="629" />
<glyph unicode="&#x2005;" horiz-adv-x="472" />
<glyph unicode="&#x2006;" horiz-adv-x="314" />
<glyph unicode="&#x2007;" horiz-adv-x="314" />
<glyph unicode="&#x2008;" horiz-adv-x="236" />
<glyph unicode="&#x2009;" horiz-adv-x="377" />
<glyph unicode="&#x200a;" horiz-adv-x="104" />
<glyph unicode="&#x2010;" horiz-adv-x="1009" d="M127 477v230h756v-230h-756z" />
<glyph unicode="&#x2011;" horiz-adv-x="1009" d="M127 477v230h756v-230h-756z" />
<glyph unicode="&#x2012;" horiz-adv-x="1009" d="M127 477v230h756v-230h-756z" />
<glyph unicode="&#x2013;" horiz-adv-x="1230" d="M131 473v221h969v-221h-969z" />
<glyph unicode="&#x2014;" horiz-adv-x="1415" d="M125 477v221h1165v-221h-1165z" />
<glyph unicode="&#x2018;" horiz-adv-x="528" d="M90 975l160 461h196l-98 -461h-258z" />
<glyph unicode="&#x2019;" horiz-adv-x="516" d="M100 973l99 461h258l-160 -461h-197z" />
<glyph unicode="&#x201a;" horiz-adv-x="544" d="M59 -262l99 461h258l-160 -461h-197z" />
<glyph unicode="&#x201c;" horiz-adv-x="876" d="M90 971l160 461h196l-98 -461h-258zM436 971l160 461h197l-99 -461h-258z" />
<glyph unicode="&#x201d;" horiz-adv-x="862" d="M100 973l99 461h258l-160 -461h-197zM446 973l99 461h258l-160 -461h-197z" />
<glyph unicode="&#x201e;" horiz-adv-x="907" d="M59 -262l99 461h258l-160 -461h-197zM422 -262l98 461h258l-160 -461h-196z" />
<glyph unicode="&#x2022;" horiz-adv-x="843" d="M158 563q0 116 75.5 188t190.5 72q112 0 187 -72.5t75 -187.5t-75 -186.5t-187 -71.5q-116 0 -191 71.5t-75 186.5z" />
<glyph unicode="&#x2026;" horiz-adv-x="1449" d="M111 129q0 40 16.5 71.5t42.5 48t57 24t62.5 0t57.5 -24t42.5 -48t16.5 -71.5t-16.5 -71.5t-42.5 -48t-57 -24t-62.5 0t-57.5 24t-42.5 48t-16.5 71.5zM578 129q0 40 16 71.5t42 48t57.5 24t63 0t57.5 -24t42 -48t16 -71.5q0 -56 -30.5 -94t-73.5 -46.5t-86 0t-73.5 46.5 t-30.5 94zM1044 129q0 47 22 81t54.5 49.5t71 15.5t71 -15.5t54.5 -49.5t22 -81t-22 -81t-54.5 -49.5t-71 -15.5t-71 15.5t-54.5 49.5t-22 81z" />
<glyph unicode="&#x202f;" horiz-adv-x="377" />
<glyph unicode="&#x2039;" horiz-adv-x="700" d="M72 606l284 453h267l-283 -453l283 -454h-267z" />
<glyph unicode="&#x203a;" horiz-adv-x="700" d="M80 158l282 454l-282 453h266l285 -453l-285 -454h-266z" />
<glyph unicode="&#x205f;" horiz-adv-x="472" />
<glyph unicode="&#x20ac;" horiz-adv-x="1257" d="M90 461v198h111v48q0 41 2 61h-113v201h146q66 225 242 359t462 134q121 0 221 -32l-86 -242q-60 16 -135 16q-154 0 -262 -64t-168 -171h467l-45 -201h-483q-3 -30 -3 -61q0 -27 3 -48h450l-41 -198h-354q56 -110 164.5 -175t271.5 -65q84 0 172 31l76 -250 q-116 -35 -248 -35q-154 0 -277.5 36.5t-208.5 104t-140.5 155.5t-84.5 198h-139z" />
<glyph unicode="&#x2122;" horiz-adv-x="1669" d="M131 1272v164h586v-164h-197v-434h-194v434h-195zM782 838v600h205l162 -199l162 199h205v-600h-199v178l14 174l-164 -219h-41l-159 219l14 -174v-178h-199z" />
<glyph unicode="&#x25fc;" horiz-adv-x="1013" d="M0 0v1014h1014v-1014h-1014z" />
<glyph unicode="&#xfb01;" horiz-adv-x="1304" d="M49 778h189v-778h249v778h295v217h-295v68q0 89 42 134.5t110 45.5q57 0 119 -35l78 195q-104 55 -213 55q-78 0 -146 -24.5t-122 -71.5t-85.5 -124t-31.5 -175v-68h-189v-217zM899 1294q0 40 16.5 71.5t42.5 48t57 24t62.5 0t57.5 -24t42.5 -48t16.5 -71.5t-16.5 -71.5 t-42.5 -48t-57.5 -24t-62.5 0t-57 24t-42.5 48t-16.5 71.5zM922 0h249v1014h-249v-1014z" />
<glyph unicode="&#xfb02;" horiz-adv-x="1298" d="M49 776v219h189v68q0 98 31.5 175t85.5 124t122 71.5t146 24.5q102 0 198 -45l-57 -203q-57 33 -125 33t-110 -45.5t-42 -134.5v-68h277v-219h-277v-776h-249v776h-189zM909 0v1432h248v-1432h-248z" />
</font>
</defs>
</svg>
